狱中豪杰[简繁字幕].Big.Stan.2007.BluRay.1080p.DTS-HD.MA5.1.x265.10bit-ALT 10.33GB

版主小s 29天前 124

◎译 名 狱中豪杰 / 猛男奸狱 / 逼坐断背监

◎片 名 Big Stan

◎年 代 2007

◎产 地 美国

◎类 别 喜剧 / 动作

◎语 言 英语

◎上映日期 2007-11-05

◎IMDb链接 https://www.imdb.com/title/tt0490086/

◎豆瓣评分 6.9/10 (15019人评价)

◎豆瓣链接 https://movie.douban.com/subject/2364982/

◎片 长 105 分钟

◎导 演 罗伯·施奈德 Rob Schneider (id:1040519)

◎演 员 罗伯·施奈德 Rob Schneider (id:1040519)

大卫·卡拉丁 David Carradine (id:1036373)

詹妮弗·莫里森 Jennifer Morrison (id:1000022)

斯科特·威尔森 Scott Wilson (id:1002813)

理查德·坎德 Richard Kind (id:1041144)

莎莉·柯克兰德 Sally Kirkland (id:1041245)

M·埃梅特·沃尔什 M. Emmet Walsh (id:1054687)

亨利·吉布森 Henry Gibson (id:1055515)

杰克逊·拉斯波恩 Jackson Rathbone (id:1036304)

凯文·盖奇 Kevin Gage (id:1101199)

波布·萨普 Bob Sapp (id:1173250)

布兰登·T·杰克逊 Brandon T. Jackson (id:1031906)

丹·哈格蒂 Dan Haggerty (id:1092903)

理查德·雷西尔 Richard Riehle (id:1142526)

玛西娅·华莱士 Marcia Wallace (id:1165119)

萨尔瓦托雷·哈雷布 Salvator Xuereb (id:1041331)

兰迪·库卓 Randy Couture (id:1009313)

唐·弗莱 Don Frye (id:1195883)

布兰顿·莫拉勒 Brandon Molale (id:1122866)

西蒙·瑞 Simon Rhee (id:1143089)

伊鲁山度 Dan Inosanto (id:1111870)

费德里克·多尔德 Federico Dordei (id:1069601)

奥立薇娅·玛恩 Olivia Munn (id:1009303)

梅根·卡瓦纳芙 Megan Cavanagh (id:1076572)

Robbie Lee Robbie Lee (id:1249214)

杰弗里·古尔德 Geoffrey Gould (id:1096492)

Ahman Green Ahman Green (id:1189445)

Lance J. Holt Lance J. Holt (id:1172387)

Chris Astoyan Chris Astoyan (id:1203878)

里克·坎普 Rick Camp (id:1179949)

Kenny New (id:1239377)

戴维·阿伦·霍奇斯 David Alan Hodges (id:1240035)

布雷特·瓦格纳 Brett Wagner (id:1365960)

乔·古森 Joe Goossen (id:1163989)

Wes Takahashi Wes Takahashi (id:1298841)

Joseph Fossum-Perez (id:1245782)

芭芭拉·多德 Barbara Dodd (id:1282516)

Tsuyoshi Abe Tsuyoshi Abe (id:1276742)

尼克·普林西比 Nick Principe (id:1425712)

大卫·艾伦·格拉夫 David Alan Graf (id:1025523)

Big Spence Big Spence (id:1004735)

Maury Rogow Maury Rogow (id:1051239)

埃里克·贝特斯 Erik Betts (id:1065883)

Tom Poole Tom Poole (id:1052936)

罗伯·施奈德 Rob Schneider (id:1040519)

马可·A·Z·迪普 Mark A.Z. Dippé (id:1328463)

史蒂文·保罗 Steven Paul (id:1048344)

Benedict Carver Benedict Carver (id:1045731)

Victor Hammer Victor Hammer (id:1051441)

理查德·哈尔西 Richard Halsey (id:1285882)

罗伯特·霍尔 Robert Hall (id:1037047)

Debbie Mezera Debbie Mezera (id:1208547)

Rose Librizzi Rose Librizzi (id:1290014)

Erik Porn Erik Porn (id:1199941)

Leonard Drake Leonard Drake (id:1282701)

Mark Bashian (id:1256520)

Gary Guercio Gary Guercio (id:1285599)

Erik Dehkhoda Erik Dehkhoda (id:1048839)

麦克·冈瑟 Mike Gunther (id:1346354)

◎简 介

居住在洛杉矶的斯坦·明顿(罗伯·施奈德 Rob Schneider 饰)是一名巧舌如簧、事业有成的房地产商人。他张狂无度,满嘴大话,最终不可避免地卷入一场诈骗案,面临着为期3年的牢狱之灾,而他所去的正是一所臭名昭著、以暴力著称的监狱。不过在此之前,斯坦还有6个月的自由时间。本来心情无比烦躁,还和女友敏迪(珍妮弗·莫瑞森 Jennifer Morrison 饰)闹出不快。为了防止在狱中被人强暴,斯坦开始拜师访友,修炼武功,期间更得到一名神秘武师(大卫·卡拉丁 David Carradine 饰)的指导。

六个月时间转瞬即逝,斯坦终于迎来服刑的重要时刻。他将成为人人得而上之的公共汽车?还是打遍监狱无敌手的风云人物?答案即将揭晓……

  1. ##### MediaInfo ######

  2. General

  3. Unique ID : 64859427214126191247913917535771077774 (0x30CB78A76D936A88A2C8F545A27EAC8E)

  4. Complete name : Big.Stan.2007.BluRay.1080p.DTS-HD.MA5.1.x265.10bit-ALT.mkv

  5. Format : Matroska

  6. Format version : Version 4

  7. File size : 10.3 GiB

  8. Duration : 1 h 49 min

  9. Overall bit rate mode : Variable

  10. Overall bit rate : 13.5 Mb/s

  11. Encoded date : UTC 2022-06-04 17:11:34

  12. Writing application : mkvmerge v49.0.0 ('Sick Of Losing Soulmates') 64-bit

  13. Writing library : libebml v1.4.0 + libmatroska v1.6.1

  14. Video

  15. ID : 1

  16. Format : HEVC

  17. Format/Info : High Efficiency Video Coding

  18. Format profile : Main 10@L5.1@High

  19. Codec ID : V_MPEGH/ISO/HEVC

  20. Duration : 1 h 49 min

  21. Bit rate : 10.3 Mb/s

  22. Width : 1 920 pixels

  23. Height : 1 040 pixels

  24. Display aspect ratio : 1.85:1

  25. Frame rate mode : Constant

  26. Frame rate : 23.976 (24000/1001/53354) FPS

  27. Color space : YUV

  28. Chroma subsampling : 4:2:0

  29. Bit depth : 10 bits

  30. Bits/(Pixel*Frame) : 0.215

  31. Stream size : 7.86 GiB (76%)

  32. Title : HEVC, x265Main10@L5.1@High, 24/1.001 fps @ 10312 kbps

  33. Writing library : x265 3.5+36-1f2c8da77:[Windows][GCC 11.2.0][64 bit] 10bit

  34. Encoding settings : cpuid=533541111039 / frame-threads=4 / numa-pools=16 / wpp / no-pmode / no-pme / no-psnr / no-ssim / log-level=2 / input-csp=1 / input-res=1920x1040 / interlace=0 / total-frames=157009 / level-idc=51 / high-tier=1 / uhd-bd=0 / ref=5 / no-allow-non-conformance / no-repeat-headers / annexb / no-aud / no-eob / no-eos / no-hrd / info / hash=0 / no-temporal-layers / open-gop / min-keyint=24 / keyint=240 / gop-lookahead=0 / bframes=6 / b-adapt=2 / b-pyramid / bframe-bias=0 / rc-lookahead=40 / lookahead-slices=0 / NTMzNTQ=uuDQuD2mJt9fsCf / scenecut=40 / no-hist-scenecut / radl=0 / no-splice / no-intra-refresh / ctu=32 / min-cu-size=8 / no-rect / no-amp / max-tu-size=32 / tu-inter-depth=3 / tu-intra-depth=3 / limit-tu=4 / rdoq-level=2 / dynamic-rd=0.00 / no-ssim-rd / signhide / no-tskip / nr-intra=0 / nr-inter=0 / no-constrained-intra / no-strong-intra-smoothing / max-merge=4 / limit-refs=1 / limit-modes / me=3 / subme=4 / merange=25 / temporal-mvp / no-frame-dup / no-hme / weightp / weightb / no-analyze-src-pics / deblock=-3:-3 / no-sao / no-sao-non-deblock / rd=6 / selective-sao=0 / no-early-skip / rskip / no-fast-intra / no-tskip-fast / no-cu-lossless / b-intra / no-splitrd-skip / rdpenalty=0 / psy-rd=2.00 / psy-rdoq=1.00 / no-rd-refine / no-lossless / cbqpoffs=-2 / crqpoffs=-2 / rc=crf / crf=18.5 / qcomp=0.65 / qpstep=4 / stats-write=0 / stats-read=0 / vbv-maxrate=80000 / vbv-bufsize=80000 / vbv-init=0.9 / min-vbv-fullness=50.0 / max-vbv-fullness=80.0 / crf-max=0.0 / crf-min=0.0 / ipratio=1.40 / pbratio=1.30 / aq-mode=2 / aq-strength=0.85 / cutree / zone-count=0 / no-strict-cbr / qg-size=32 / no-rc-grain / qpmax=69 / qpmin=0 / no-const-vbv / sar=1 / overscan=0 / videoformat=5 / range=0 / colorprim=1 / transfer=1 / colormatrix=1 / chromaloc=0 / display-window=0 / cll=0,0 / min-luma=0 / max-luma=1023 / log2-max-poc-lsb=8 / vui-timing-info / vui-hrd-info / slices=1 / no-opt-qp-pps / no-opt-ref-list-length-pps / no-multi-pass-opt-rps / scenecut-bias=0.05 / hist-threshold=0.03 / no-opt-cu-delta-qp / no-aq-motion / no-hdr10 / no-hdr10-opt / no-dhdr10-opt / no-idr-recovery-sei / analysis-reuse-level=0 / analysis-save-reuse-level=0 / analysis-load-reuse-level=0 / scale-factor=0 / refine-intra=0 / refine-inter=0 / refine-mv=1 / refine-ctu-distortion=0 / no-limit-sao / ctu-info=0 / no-lowpass-dct / refine-analysis-type=0 / copy-pic=1 / max-ausize-factor=1.0 / no-dynamic-refine / no-single-sei / no-hevc-aq / no-svt / no-field / qp-adaptation-range=1.00 / scenecut-aware-qp=0conformance-window-offsets / right=0 / bottom=0 / NTMzNTQ= / decoder-max-rate=0 / no-vbv-live-multi-pass

  35. Language : English

  36. Default : Yes

  37. Forced : No

  38. Color range : Limited

  39. Color primaries : BT.709

  40. Transfer characteristics : BT.709

  41. Matrix coefficients : BT.709

  42. Audio

  43. ID : 2

  44. Format : DTS XLL

  45. Format/Info : Digital Theater Systems

  46. Commercial name : DTS-HD Master Audio

  47. Codec ID : A_DTS

  48. Duration : 1 h 49 min

  49. Bit rate mode : Variable

  50. Bit rate : 3 186 kb/s

  51. Channel(s) : 6 channels

  52. Channel layout : C L R Ls Rs LFE

  53. Sampling rate : 48.0 kHz

  54. Frame rate : 93.750 FPS (512 SPF)

  55. Bit depth : 24 bits

  56. Compression mode : Lossless

  57. Stream size : 2.43 GiB (24%)

  58. Title : English DTS-HD Master Audio 5.1 @ 3186 kbps

  59. Language : English

  60. Default : Yes

  61. Forced : No

  62. Text #1

  63. ID : 3

  64. Format : PGS

  65. Codec ID : S_HDMV/PGS

  66. Codec ID/Info : Picture based subtitle format used on BDs/HD-DVDs

  67. Duration : 1 h 42 min

  68. Bit rate : 23.3 kb/s

  69. Count of elements : 2858

  70. Stream size : 17.1 MiB (0%)

  71. Title : Chs/SUP 简体

  72. Language : Chinese

  73. Default : Yes

  74. Forced : No

  75. Text #2

  76. ID : 4

  77. Format : PGS

  78. Codec ID : S_HDMV/PGS

  79. Codec ID/Info : Picture based subtitle format used on BDs/HD-DVDs

  80. Duration : 1 h 42 min

  81. Bit rate : 23.7 kb/s

  82. Count of elements : 2858

  83. Stream size : 17.4 MiB (0%)

  84. Title : Cht/SUP 繁体

  85. Language : Chinese

  86. Default : No

  87. Forced : No

  88. Menu

  89. 00:00:00.000 : en:第 01 章

  90. 00:09:15.346 : en:第 02 章

  91. 00:18:11.132 : en:第 03 章

  92. 00:27:22.558 : en:第 04 章

  93. 00:38:29.057 : en:第 05 章

  94. 00:51:57.865 : en:第 06 章

  95. 01:01:38.862 : en:第 07 章

  96. 01:13:20.479 : en:第 08 章

  97. 01:19:55.874 : en:第 09 章

  98. 01:28:37.062 : en:第 10 章

  99. 01:37:29.427 : en:第 11 章

  100. 01:43:07.807 : en:第 12 章


复制代码


TAGS 动作 喜剧 /

磁力链:
  • magnet:?xt=urn:btih:5E4E2FAEA0BBFBFB2BE2193BA433F36D48C38AD1
上传的附件:
BT9527电影天堂 1、BT9527电影天堂提供的BT文件均来源于互联网抓取,只供网友学习交流、技术提升使用。
2、我们遵守BitTorrent点对点协议原则,任何版权问题请联系原资源发布商,我们不处理任何版权纠纷,谢谢!如有争议请联系邮箱:BT9527#hotmail.com(#换成@)
3、如果您发现某页面或地址有错误,请联系站长邮箱BT9527#hotmail.com(#换成@),我们会尽快处理。您的热心是对BT9527电影天堂最大的支持。
4、本站建议去正规影院观看电影以支持电影行业发展。
最新回复 (0)

你可以在 登录 or 注册 后,对此帖发表评论!

返回
发新帖