双重赔偿[简繁英字幕].Double.Indemnity.1944.2160p.HDR.UHD.BluRay.DD1.0.x265-10bit-ENTHD 14.14GB

版主小s 20天前 95

◎译 名 双重赔偿 / 双重保险(台) / 双重生活 / 双倍赔偿

◎片 名 Double Indemnity

◎年 代 1944

◎产 地 美国

◎类 别 剧情 / 悬疑 / 惊悚 / 犯罪 / 黑色电影

◎语 言 英语

◎上映日期 1944-07-03(美国)

◎IMDb链接 https://www.imdb.com/title/tt0036775/

◎豆瓣评分 8.5/10 (33097人评价)

◎豆瓣链接 https://movie.douban.com/subject/1293226/

◎片 长 107分钟

◎导 演 比利·怀尔德 Billy Wilder (id:1054385)

◎编 剧 比利·怀尔德 Billy Wilder (id:1054385)

雷蒙德·钱德勒 Raymond Chandler (id:1023049)

詹姆斯·M·凯恩 James M. Cain (id:1009939)

◎演 员 弗莱德·麦克莫瑞 Fred MacMurray (id:1049778)

芭芭拉·斯坦威克 Barbara Stanwyck (id:1010620)

爱德华·罗宾逊 Edward G. Robinson (id:1036586)

波特·霍尔 Porter Hall (id:1099641)

琼·希瑟 Jean Heather (id:1100795)

汤姆·鲍尔斯 Tom Powers (id:1136184)

Byron Barr Byron Barr (id:1065964)

理查德·盖恩斯 Richard Gaines (id:1101402)

福图尼奥·博纳诺瓦 Fortunio Bonanova (id:1016842)

John Philliber John Philliber (id:1130207)

杰姆斯亚当森 James Adamson (id:1059100)

约翰·贝里 John Berry (id:1064594)

雷蒙德·钱德勒 Raymond Chandler (id:1023049)

埃德蒙·科博 Edmund Cobb (id:1009250)

Kernan Cripps Kernan Cripps (id:1069030)

Betty Farrington Betty Farrington (id:1084004)

贝丝·弗劳尔斯 Bess Flowers (id:1084601)

Eddie Hall Eddie Hall (id:1095048)

Teala Loring Teala Loring (id:1096595)

乔治·麦格瑞 George Magrill (id:1116080)

Sam McDaniel Sam McDaniel (id:1124034)

Billy Mitchell Billy Mitchell (id:1118875)

克拉伦斯·缪斯 Clarence Muse (id:1028065)

Constance Purdy Constance Purdy (id:1145290)

Floyd Shackelford Floyd Shackelford (id:1147243)

Oscar Smith Oscar Smith (id:1153121)

道格拉斯·斯宾塞 Douglas Spencer (id:1158831)

Florence Wix Florence Wix (id:1163168)

米克罗斯·罗兹萨 Miklós Rózsa (id:1002885)

洛伦·L·里德 Loren L. Ryder (id:1145748)

◎简 介

Walter Neff(弗莱德·麦克莫瑞 Fred MacMurray 饰)是一个成功的保险代理人,他在夜里回到办公室,开始在一个录音机上诉说他的故事......

Neff为了取得Dietrichson先生的保险代理权,来到了他的家中,Dietrichson先生不在,Neff遇到了Dietrichson先生的新妻子Phyllis Dietrichson(芭芭拉·斯坦威克 Barbara Stanwyck 饰)。美丽的Phyllis让Neff感到不自然,而她也开始说起她的丈夫的诸多不好之处。在第二次拜访中,Neff终于控制不住自己的欲望,愿意参与Phyllis的杀夫计划。Neff计划在Dietrichson先生坐火车的时候制造他失足摔下的假象,以骗取“双重保险”。一切进行的非常顺利,Dietrichson先生死掉了,Neff和Phyllis两人的爱情和...

◎获奖情况 (共7项)

第17届奥斯卡金像奖 (1945)

最佳影片(提名)

最佳导演(提名)

└──比利·怀尔德 (id:1054385)

最佳女主角(提名)

└──芭芭拉·斯坦威克 (id:1010620)

最佳编剧(提名)

黑白片最佳摄影(提名)

└──约翰·F·塞茨 (id:1012757)

最佳录音(提名)

└──洛伦·L·里德 (id:1145748)

剧情/喜剧片最佳配乐(提名)

└──米克罗斯·罗兹萨 (id:1002885)

  1. ##### MediaInfo ######

  2. General

  3. Unique ID : 106658048630522522862106368588836253234 (0x503D97CCAB223C27BC5F56BDCFD02E32)

  4. Complete name : Double.Indemnity.1944.2160p.HDR.UHD.BluRay.DD1.0.x265-10bit-ENTHD.mkv

  5. Format : Matroska

  6. Format version : Version 4

  7. File size : 14.1 GiB

  8. Duration : 1 h 47 min

  9. Overall bit rate : 18.8 Mb/s

  10. Movie name : Double Indemnity 1944 2160p HDR UHD BluRay DD2.0 x265-10bit-HDS

  11. Encoded date : UTC 2022-06-04 22:21:13

  12. Writing application : mkvmerge v67.0.0 ('Under Stars') 64-bit

  13. Writing library : libebml v1.4.2 + libmatroska v1.6.4

  14. Video

  15. ID : 1

  16. Format : HEVC

  17. Format/Info : High Efficiency Video Coding

  18. Format profile : Main 10@L5.1@High

  19. HDR format : SMPTE ST 2086, HDR10 compatible

  20. Codec ID : V_MPEGH/ISO/HEVC

  21. Duration : 1 h 47 min

  22. Bit rate : 18.2 Mb/s

  23. Width : 2 960 pixels

  24. Height : 2 160 pixels

  25. Display aspect ratio : 1.370

  26. Frame rate mode : Constant

  27. Frame rate : 23.976 (24000/1001/53354) FPS

  28. Color space : YUV

  29. Chroma subsampling : 4:2:0

  30. Bit depth : 10 bits

  31. Bits/(Pixel*Frame) : 0.119

  32. Stream size : 13.7 GiB (97%)

  33. Title : @HDSky

  34. Writing library : x265 - H.265/HEVC codec

  35. Default : Yes

  36. Forced : No

  37. Color range : Limited

  38. Color primaries : BT.2020

  39. Transfer characteristics : PQ

  40. Matrix coefficients : BT.2020 non-constant

  41. Mastering display color primaries : BT.2020

  42. Mastering display luminance : min: 0.0001 cd/m2, max: 1000 cd/m2

  43. Maximum Content Light Level : 1000 cd/m2

  44. Maximum Frame-Average Light Level : 86 cd/m2

  45. Audio

  46. ID : 2

  47. Format : AC-3

  48. Format/Info : Audio Coding 3

  49. Commercial name : Dolby Digital

  50. Codec ID : A_AC3

  51. Duration : 1 h 47 min

  52. Bit rate mode : Constant

  53. Bit rate : 448 kb/s

  54. Channel(s) : 1 channel

  55. Channel layout : C

  56. Sampling rate : 48.0 kHz

  57. Frame rate : 31.250 FPS (1536 SPF)

  58. Compression mode : Lossy

  59. Stream size : 346 MiB (2%)

  60. Title : English

  61. Language : English

  62. Service kind : Complete Main

  63. Default : Yes

  64. Forced : No

  65. Text #1

  66. ID : 3

  67. Format : PGS

  68. Muxing mode : zlib

  69. Codec ID : S_HDMV/PGS

  70. Codec ID/Info : Picture based subtitle format used on BDs/HD-DVDs

  71. Duration : 1 h 45 min

  72. Bit rate : 87.7 kb/s

  73. Count of elements : 3638

  74. Stream size : 66.1 MiB (0%)

  75. Title : ENG

  76. Language : English

  77. Default : Yes

  78. Forced : No

  79. Text #2

  80. ID : 4

  81. Format : PGS

  82. Muxing mode : zlib

  83. Codec ID : S_HDMV/PGS

  84. Codec ID/Info : Picture based subtitle format used on BDs/HD-DVDs

  85. Duration : 1 h 44 min

  86. Bit rate : 30.8 kb/s

  87. Count of elements : 3365

  88. Stream size : 23.1 MiB (0%)

  89. Title : CHS

  90. Language : Chinese

  91. Default : Yes

  92. Forced : No

  93. Text #3

  94. ID : 5

  95. Format : PGS

  96. Muxing mode : zlib

  97. Codec ID : S_HDMV/PGS

  98. Codec ID/Info : Picture based subtitle format used on BDs/HD-DVDs

  99. Duration : 1 h 44 min

  100. Bit rate : 34.7 kb/s

  101. Count of elements : 3365

  102. Stream size : 26.0 MiB (0%)

  103. Title : CHT

  104. Language : Chinese

  105. Default : Yes

  106. Forced : No

  107. Text #4

  108. ID : 6

  109. Format : PGS

  110. Muxing mode : zlib

  111. Codec ID : S_HDMV/PGS

  112. Codec ID/Info : Picture based subtitle format used on BDs/HD-DVDs

  113. Duration : 1 h 44 min

  114. Bit rate : 64.7 kb/s

  115. Count of elements : 3365

  116. Stream size : 48.4 MiB (0%)

  117. Title : CHS&ENG

  118. Language : Chinese

  119. Default : Yes

  120. Forced : No

  121. Text #5

  122. ID : 7

  123. Format : PGS

  124. Muxing mode : zlib

  125. Codec ID : S_HDMV/PGS

  126. Codec ID/Info : Picture based subtitle format used on BDs/HD-DVDs

  127. Duration : 1 h 44 min

  128. Bit rate : 68.6 kb/s

  129. Count of elements : 3365

  130. Stream size : 51.3 MiB (0%)

  131. Title : CHT&ENG

  132. Language : Chinese

  133. Default : Yes

  134. Forced : No

  135. Menu

  136. 00:00:00.000 : en:第 01 章

  137. 00:07:27.072 : en:第 02 章

  138. 00:12:48.768 : en:第 03 章

  139. 00:17:09.028 : en:第 04 章

  140. 00:23:01.380 : en:第 05 章

  141. 00:33:13.408 : en:第 06 章

  142. 00:39:35.373 : en:第 07 章

  143. 00:42:38.973 : en:第 08 章

  144. 00:47:58.292 : en:第 09 章

  145. 00:51:49.523 : en:第 10 章

  146. 01:00:27.040 : en:第 11 章

  147. 01:08:56.299 : en:第 12 章

  148. 01:14:04.065 : en:第 13 章

  149. 01:23:55.530 : en:第 14 章

  150. 01:27:31.246 : en:第 15 章

  151. 01:34:16.651 : en:第 16 章

  152. 01:42:46.160 : en:第 17 章


复制代码


TAGS 剧情 惊悚 悬疑 犯罪 / 黑色电影

磁力链:
  • magnet:?xt=urn:btih:CE6B61678D246797D06FF8312C182461C4470559
上传的附件:
BT9527电影天堂 1、BT9527电影天堂提供的BT文件均来源于互联网抓取,只供网友学习交流、技术提升使用。
2、我们遵守BitTorrent点对点协议原则,任何版权问题请联系原资源发布商,我们不处理任何版权纠纷,谢谢!如有争议请联系邮箱:BT9527#hotmail.com(#换成@)
3、如果您发现某页面或地址有错误,请联系站长邮箱BT9527#hotmail.com(#换成@),我们会尽快处理。您的热心是对BT9527电影天堂最大的支持。
4、本站建议去正规影院观看电影以支持电影行业发展。
最新回复 (0)

你可以在 登录 or 注册 后,对此帖发表评论!

返回
发新帖