坏蛋联盟[国英多音轨/简繁字幕].The.Bad.Guys.2022.1080p.BluRay.x265.10bit-HomeHD 7.08GB

版主小s 24天前 180

◎译 名 坏蛋联盟 / 大坏蛋 / 坏家伙 / Bad Guys

◎片 名 The Bad Guys

◎年 代 2022

◎产 地 美国

◎类 别 喜剧 / 动画 / 冒险

◎语 言 英语

◎上映日期 2022-04-29(中国大陆) / 2022-03-17(阿根廷) / 2022-04-22(美国)

◎IMDb链接 https://www.imdb.com/title/tt8115900/

◎豆瓣评分 7.3/10 (73811人评价)

◎豆瓣链接 https://movie.douban.com/subject/30165311/

◎片 长 100分钟

◎导 演 彼埃尔·佩里菲尔 Pierre Perifel (id:1408784)

◎编 剧 艾伦·布拉培 Aaron Blabey (id:1278711)

伊坦·柯亨 Etan Cohen (id:1302166)

尤尼·布伦纳 Yoni Brenner (id:1361293)

希拉里·温斯顿 Hilary Winston (id:1321813)

◎演 员 山姆·洛克威尔 Sam Rockwell (id:1047972)

马克·马龙 Marc Maron (id:1116943)

奥卡菲娜 Awkwafina (id:1360857)

克雷格·罗宾森 Craig Robinson (id:1142826)

安东尼·拉莫斯 Anthony Ramos (id:1388489)

理查德·艾欧阿德 Richard Ayoade (id:1274320)

莎姬·贝兹 Zazie Beetz (id:1370059)

艾利克斯·布诺斯町 Alex Borstein (id:1007007)

莉莉·辛格 Lilly Singh (id:1393866)

芭芭拉·古德森 Barbara Goodson (id:1102389)

迪娜·莫罗 Dina Morrone (id:1470954)

迈克尔·高德尔 Michael Godere (id:1097245)

凯莉·库尼 Kelly Cooney (id:1383206)

沃尔特·道恩 Walt Dohrn (id:1371495)

戴维·P·史密斯 David P. Smith (id:1408787)

◎简 介

故事的主角是五个无恶不作的坏蛋——风度翩翩的扒手“大坏狼”、见多识广的保险箱窃贼“贪心蛇”、冷静沉稳的伪装大师“美肚鲨”、暴躁易怒的打手“食人鱼”、伶牙俐齿的黑客专家“骇客蛛”闪亮登场,他们是最臭名昭著的“坏蛋联盟”。他们平时威风八面,四处作案,令人闻风丧胆。直到某一天,他们突然想成为模范公民,然而转型路途甚是艰难,且意外层出不穷,令人啼笑皆非。

  1. ##### MediaInfo ######

  2. General

  3. Unique ID : 225424767957985018125646808993358871895 (0xA9973B282B4E2C40B30DA37222C2FD57)

  4. Complete name : The.Bad.Guys.2022.1080p.BluRay.x265.10bit-HomeHD.mkv

  5. Format : Matroska

  6. Format version : Version 1

  7. File size : 7.08 GiB

  8. Duration : 1 h 40 min

  9. Overall bit rate : 10.1 Mb/s

  10. Encoded date : UTC 2022-06-04 03:36:23

  11. Writing application : mkvmerge v2.2.0 ('Turn It On Again') built on Mar 4 2008 13:20:25

  12. Writing library : libebml v0.7.7 + libmatroska v0.8.1

  13. Attachments : MSYH.TTF / MSYH_chscht.ttf / MSYHBD.TTF / tahoma.ttf

  14. Video

  15. ID : 1

  16. Format : HEVC

  17. Format/Info : High Efficiency Video Coding

  18. Format profile : Main 10@L4@Main

  19. Codec ID : V_MPEGH/ISO/HEVC

  20. Duration : 1 h 40 min

  21. Bit rate : 8 445 kb/s

  22. Width : 1 920 pixels

  23. Height : 804 pixels

  24. Display aspect ratio : 2.40:1

  25. Frame rate mode : Constant

  26. Frame rate : 23.976 (24000/1001/53354) FPS

  27. Color space : YUV

  28. Chroma subsampling : 4:2:0

  29. Bit depth : 10 bits

  30. Bits/(Pixel*Frame) : 0.228

  31. Stream size : 5.91 GiB (83%)

  32. Default : Yes

  33. Forced : No

  34. Audio #1

  35. ID : 2

  36. Format : AC-3

  37. Format/Info : Audio Coding 3

  38. Commercial name : Dolby Digital

  39. Codec ID : A_AC3

  40. Duration : 1 h 40 min

  41. Bit rate mode : Constant

  42. Bit rate : 448 kb/s

  43. Channel(s) : 6 channels

  44. Channel layout : L R C LFE Ls Rs

  45. Sampling rate : 48.0 kHz

  46. Frame rate : 31.250 FPS (1536 SPF)

  47. Compression mode : Lossy

  48. Stream size : 321 MiB (4%)

  49. Title : 英语

  50. Language : English

  51. Service kind : Complete Main

  52. Default : No

  53. Forced : No

  54. Statistics Tags Issue : mkvmerge v67.0.0 ('Under Stars') 64-bit 2022-05-23 03:48:22 / mkvmerge v2.2.0 ('Turn It On Again') built on Mar 4 2008 13:20:25 2022-06-04 03:36:23

  55. FromStats_BitRate : 448000

  56. FromStats_Duration : 01:40:07.008000000

  57. FromStats_FrameCount : 187719

  58. FromStats_StreamSize : 336392448

  59. Audio #2

  60. ID : 3

  61. Format : AC-3

  62. Format/Info : Audio Coding 3

  63. Commercial name : Dolby Digital

  64. Codec ID : A_AC3

  65. Duration : 1 h 40 min

  66. Bit rate mode : Constant

  67. Bit rate : 640 kb/s

  68. Channel(s) : 2 channels

  69. Channel layout : L R

  70. Sampling rate : 48.0 kHz

  71. Frame rate : 31.250 FPS (1536 SPF)

  72. Compression mode : Lossy

  73. Stream size : 458 MiB (6%)

  74. Title : 中影公映国语

  75. Language : Chinese

  76. Service kind : Complete Main

  77. Default : Yes

  78. Forced : No

  79. Audio #3

  80. ID : 4

  81. Format : AC-3

  82. Format/Info : Audio Coding 3

  83. Commercial name : Dolby Digital

  84. Codec ID : A_AC3

  85. Duration : 1 h 40 min

  86. Bit rate mode : Constant

  87. Bit rate : 384 kb/s

  88. Channel(s) : 6 channels

  89. Channel layout : L R C LFE Ls Rs

  90. Sampling rate : 48.0 kHz

  91. Frame rate : 31.250 FPS (1536 SPF)

  92. Compression mode : Lossy

  93. Stream size : 275 MiB (4%)

  94. Title : 台配国语

  95. Language : Chinese

  96. Service kind : Complete Main

  97. Default : No

  98. Forced : No

  99. Text #1

  100. ID : 5

  101. Format : ASS

  102. Codec ID : S_TEXT/ASS

  103. Codec ID/Info : Advanced Sub Station Alpha

  104. Compression mode : Lossless

  105. Title : 公映简体中字

  106. Language : Chinese

  107. Default : Yes

  108. Forced : No

  109. Text #2

  110. ID : 6

  111. Format : ASS

  112. Codec ID : S_TEXT/ASS

  113. Codec ID/Info : Advanced Sub Station Alpha

  114. Compression mode : Lossless

  115. Title : 台配繁体中字

  116. Language : Chinese

  117. Default : No

  118. Forced : No


复制代码


TAGS 冒险 动画 喜剧 /

磁力链:
  • magnet:?xt=urn:btih:11E93EE50A02116C1F0FB5C77BFD1B29512BEF63
上传的附件:
BT9527电影天堂 1、BT9527电影天堂提供的BT文件均来源于互联网抓取,只供网友学习交流、技术提升使用。
2、我们遵守BitTorrent点对点协议原则,任何版权问题请联系原资源发布商,我们不处理任何版权纠纷,谢谢!如有争议请联系邮箱:BT9527#hotmail.com(#换成@)
3、如果您发现某页面或地址有错误,请联系站长邮箱BT9527#hotmail.com(#换成@),我们会尽快处理。您的热心是对BT9527电影天堂最大的支持。
4、本站建议去正规影院观看电影以支持电影行业发展。
最新回复 (0)

你可以在 登录 or 注册 后,对此帖发表评论!

返回
发新帖