杀不了的他与死不了的她[中文字幕].He.Won't.Kill.She.Won't.Die.2019.1080p.WEB-DL.AAC2.0.H.264-CTRLWEB 3.41GB

版主小s 24天前 529



◎译  名 杀不了的他与死不了的她 / He Won't Kill, She Won't Die / Korosanai Kare to Shinanai Kanojo
◎片  名 殺さない彼と死なない彼女
◎年  代 2019
◎产  地 日本
◎类  别 爱情
◎语  言 日语
◎上映日期 2019-11-15(日本)
◎IMDb链接 https://www.imdb.com/title/tt9554846/
◎豆瓣评分 7.1/10 (3264人评价)
◎豆瓣链接 https://movie.douban.com/subject/30372314/
◎片  长 123分钟
◎导  演 小林启一 Keiichi Kobayashi (id:1332213)
◎编  剧 小林启一 Keiichi Kobayashi (id:1332213)
◎演  员 间宫祥太朗 Shotaro Mamiya (id:1336215)
       樱井日奈子 Hinako Sakurai (id:1359403)
       恒松祐里 Yuri Tsunematsu (id:1352330)
       堀田真由 Mayu Hotta (id:1372623)
       箭内梦菜 Yumena Yanai (id:1398449)
       优太朗 Yutaro (id:1409326)
       金子大地 Daichi Kaneko (id:1362379)
       中尾畅树 Nakao Masaki (id:1353843)
       佐藤玲 Ryo Sato (id:1353175)
       佐津川爱美 Aimi Satsukawa (id:1312770)
       森口瑶子 Y?ko Moriguchi (id:1170136)
       清田实栗 Mikuri Kiyota (id:1465501)
         (id:1465500)
       和智南 Wachi Minami (id:1447912)
       泉川実穂 Miho Izumikawa (id:1469549)

◎简  介
  影片改编自在推特投稿的四格漫画,漫画单行本发行后很受欢迎,再版了十次,电影版以“杀不掉的他”小坂零和“死不了的她”鹿野娜娜为中心,讲述他们和原著登场的卖萌子、平凡子、八千代等人的故事。

  1. ##### MediaInfo ######
  2. General
  3. Unique ID                                : 131254078254123639084965148535160116431 (0x62BE9DAFC499056151F0826A52E514CF)
  4. Complete name                            : He.Won't.Kill.She.Won't.Die.2019.1080p.WEB-DL.AAC2.0.H.264-CTRLWEB.mkv
  5. Format                                   : Matroska
  6. Format version                           : Version 4
  7. File size                                : 3.41 GiB
  8. Duration                                 : 2 h 2 min
  9. Overall bit rate                         : 3 973 kb/s
  10. Encoded date                             : UTC 2022-06-01 14:24:08
  11. Writing application                      : mkvmerge v65.0.0 ('Too Much') 64-bit
  12. Writing library                          : libebml v1.4.2 + libmatroska v1.6.4
  13. Video
  14. ID                                       : 1
  15. Format                                   : AVC
  16. Format/Info                              : Advanced Video Codec
  17. Format profile                           : High@L4.1
  18. Format settings                          : CABAC / 1 Ref Frames
  19. Format settings, CABAC                   : Yes
  20. Format settings, Reference frames        : 1 frame
  21. Format settings, GOP                     : M=1, N=60
  22. Codec ID                                 : V_MPEG4/ISO/AVC
  23. Duration                                 : 2 h 2 min
  24. Bit rate mode                            : Constant
  25. Bit rate                                 : 4 000 kb/s
  26. Width                                    : 1 920 pixels
  27. Height                                   : 1 080 pixels
  28. Display aspect ratio                     : 16:9
  29. Frame rate mode                          : Constant
  30. Frame rate                               : 29.970 (30000/1001/53354) FPS
  31. Color space                              : YUV
  32. Chroma subsampling                       : 4:2:0
  33. Bit depth                                : 8 bits
  34. Scan type                                : Progressive
  35. Bits/(Pixel*Frame)                       : 0.064
  36. Stream size                              : 3.30 GiB (97%)
  37. Language                                 : English
  38. Default                                  : Yes
  39. Forced                                   : No
  40. Audio
  41. ID                                       : 2
  42. Format                                   : AAC LC
  43. Format/Info                              : Advanced Audio Codec Low Complexity
  44. Codec ID                                 : A_AAC-2
  45. Duration                                 : 2 h 2 min
  46. Bit rate                                 : 125 kb/s
  47. Channel(s)                               : 2 channels
  48. Channel layout                           : L R
  49. Sampling rate                            : 48.0 kHz
  50. Frame rate                               : 46.875 FPS (1024 SPF)
  51. Compression mode                         : Lossy
  52. Stream size                              : 110 MiB (3%)
  53. Title                                    : Japanese
  54. Language                                 : Japanese
  55. Default                                  : Yes
  56. Forced                                   : No
  57. Text #1
  58. ID                                       : 3
  59. Format                                   : UTF-8
  60. Codec ID                                 : S_TEXT/UTF8
  61. Codec ID/Info                            : UTF-8 Plain Text
  62. Duration                                 : 2 h 1 min
  63. Bit rate                                 : 36 b/s
  64. Count of elements                        : 1470
  65. Stream size                              : 32.9 KiB (0%)
  66. Title                                    : Chinese Simplified
  67. Language                                 : Chinese
  68. Default                                  : Yes
  69. Forced                                   : No
  70. Text #2
  71. ID                                       : 4
  72. Format                                   : UTF-8
  73. Codec ID                                 : S_TEXT/UTF8
  74. Codec ID/Info                            : UTF-8 Plain Text
  75. Duration                                 : 2 h 1 min
  76. Bit rate                                 : 36 b/s
  77. Count of elements                        : 1470
  78. Stream size                              : 32.9 KiB (0%)
  79. Title                                    : Chinese Traditional
  80. Language                                 : Chinese
  81. Default                                  : Yes
  82. Forced                                   : No
复制代码




TAGS 爱情

磁力链:
  • magnet:?xt=urn:btih:395F63FBFDCFEF92393E9456881F21293181DEE8
上传的附件:
BT9527电影天堂 1、BT9527电影天堂提供的BT文件均来源于互联网抓取,只供网友学习交流、技术提升使用。
2、我们遵守BitTorrent点对点协议原则,任何版权问题请联系原资源发布商,我们不处理任何版权纠纷,谢谢!如有争议请联系邮箱:BT9527#hotmail.com(#换成@)
3、如果您发现某页面或地址有错误,请联系站长邮箱BT9527#hotmail.com(#换成@),我们会尽快处理。您的热心是对BT9527电影天堂最大的支持。
4、本站建议去正规影院观看电影以支持电影行业发展。
最新回复 (0)

你可以在 登录 or 注册 后,对此帖发表评论!

返回
发新帖