狱中龙[国粤英多音轨/简繁英字幕].Dragon.in.Jail.1990.BluRay.1080p.2Audio.DTS-HD.MA.2.0.x265.10bit-ALT 12.87GB

版主小s 1月前 205



◎译  名 狱中龙 / Dragon in Jail / 向上青年
◎片  名 獄中龍
◎年  代 1990
◎产  地 中国香港
◎类  别 动作 / 犯罪
◎语  言 粤语
◎上映日期 1990-09-27
◎IMDb链接 https://www.imdb.com/title/tt0100995/
◎豆瓣评分 7.0/10 (5922人评价)
◎豆瓣链接 https://movie.douban.com/subject/1302292/
◎片  长 102分钟
◎导  演 郑则仕 Kent Cheng (id:1019278)
◎编  剧 南燕 Yin Nam (id:1292902)
◎演  员 刘德华 Andy Lau (id:1054424)
       何家劲 Kenny Ho (id:1014913)
       黎姿 Gigi Lai (id:1028208)
       程东 John Ching Tung (id:1316720)
       龙方 Fong Lung (id:1290470)
       黄锦燊 Melvin Wong (id:1037445)
       韩坤 Victor Hon Kwan (id:1365336)
       何家驹 Ka-Kui Ho (id:1286711)
       曾光展 Kwong-Chin Tsang (id:1423073)
       罗树琪 Shu-Kei Law (id:1394347)
       杨健惠 Yeung Kin-Wai (id:1410541)
       林燕明 Yin-Ming Lam (id:1396541)
       韦基舜 Gei Shun Wai (id:1423075)
       刘玉基 Yuk Kee Lau (id:1423071)
       鲍方 Fong Pau (id:1044120)
       陈家豪 Ka-ho Chan (id:1433005)
       卢冠廷 Lowell Lo (id:1290255)
       柯受良 Sau Leung 'Blacky' Ko (id:1315099)

◎简  介
  富家子弟张荣日(何家劲 饰)因冲动犯事儿进入劳役中心服刑,他老实内向,对道上规矩更是一窍不通,因此饱受虾毛等人欺负,在此期间他结识了颇讲义气的阿豪(刘德华 饰),二人成为莫逆之交。此后他们洗心革面,齐心向学,更通过了中学会考。出狱后,身份不同的两个人也自然走上不同的人生路。荣日飞赴英国,研读法律;阿豪则因家境贫苦,终日为生计奔波,却当年的仇家马超追杀,最终被迫随虾毛遁入黑道。                                    
                                日光荏苒,转眼6年过去。荣日学业有成,顺利归国。阿豪也在腥风血雨中拚杀出自己的一片天空。适值此时,马超设计陷害阿豪,这也促使分处黑白两个世界荣日和阿豪站在同一法庭上。只是时过境迁,个中滋味谁人知……

  1. ##### MediaInfo ######
  2. General
  3. Unique ID                                : 324625220044458895703195571665068293679 (0xF4388B0F11C8E83E6AF4C2158F82FE2F)
  4. Complete name                            : Dragon.in.Jail.1990.BluRay.1080p.2Audio.DTS-HD.MA.2.0.x265.10bit-ALT.mkv
  5. Format                                   : Matroska
  6. Format version                           : Version 4
  7. File size                                : 12.9 GiB
  8. Duration                                 : 1 h 42 min
  9. Overall bit rate mode                    : Variable
  10. Overall bit rate                         : 18.0 Mb/s
  11. Encoded date                             : UTC 2022-06-03 11:08:22
  12. Writing application                      : mkvmerge v49.0.0 ('Sick Of Losing Soulmates') 64-bit
  13. Writing library                          : libebml v1.4.0 + libmatroska v1.6.1
  14. Video
  15. ID                                       : 1
  16. Format                                   : HEVC
  17. Format/Info                              : High Efficiency Video Coding
  18. Format profile                           : Main 10@L5.1@High
  19. Codec ID                                 : V_MPEGH/ISO/HEVC
  20. Duration                                 : 1 h 42 min
  21. Bit rate                                 : 14.7 Mb/s
  22. Width                                    : 1 920 pixels
  23. Height                                   : 1 080 pixels
  24. Display aspect ratio                     : 16:9
  25. Frame rate mode                          : Constant
  26. Frame rate                               : 24.000 FPS
  27. Color space                              : YUV
  28. Chroma subsampling                       : 4:2:0
  29. Bit depth                                : 10 bits
  30. Bits/(Pixel*Frame)                       : 0.296
  31. Stream size                              : 10.5 GiB (82%)
  32. Title                                    : HEVC, x265Main10@L5.1@High, 24 fps @ 14721 kbps
  33. Writing library                          : x265 3.5+36-1f2c8da77:[Windows][GCC 11.2.0][64 bit] 10bit
  34. Encoding settings                        : cpuid=533541111039 / frame-threads=4 / numa-pools=16 / wpp / no-pmode / no-pme / no-psnr / no-ssim / log-level=2 / input-csp=1 / input-res=1920x1080 / interlace=0 / total-frames=147122 / level-idc=51 / high-tier=1 / uhd-bd=0 / ref=5 / no-allow-non-conformance / no-repeat-headers / annexb / no-aud / no-eob / no-eos / no-hrd / info / hash=0 / no-temporal-layers / open-gop / min-keyint=24 / keyint=240 / gop-lookahead=0 / bframes=6 / b-adapt=2 / b-pyramid / bframe-bias=0 / rc-lookahead=40 / lookahead-slices=0 / NTMzNTQ=uuDQuD2mJt9fsCf / scenecut=40 / no-hist-scenecut / radl=0 / no-splice / no-intra-refresh / ctu=32 / min-cu-size=8 / no-rect / no-amp / max-tu-size=32 / tu-inter-depth=3 / tu-intra-depth=3 / limit-tu=4 / rdoq-level=2 / dynamic-rd=0.00 / no-ssim-rd / signhide / no-tskip / nr-intra=0 / nr-inter=0 / no-constrained-intra / no-strong-intra-smoothing / max-merge=4 / limit-refs=1 / limit-modes / me=3 / subme=4 / merange=25 / temporal-mvp / no-frame-dup / no-hme / weightp / weightb / no-analyze-src-pics / deblock=-3:-3 / no-sao / no-sao-non-deblock / rd=6 / selective-sao=0 / no-early-skip / rskip / no-fast-intra / no-tskip-fast / no-cu-lossless / b-intra / no-splitrd-skip / rdpenalty=0 / psy-rd=2.00 / psy-rdoq=1.00 / no-rd-refine / no-lossless / cbqpoffs=-2 / crqpoffs=-2 / rc=crf / crf=21.0 / qcomp=0.65 / qpstep=4 / stats-write=0 / stats-read=0 / vbv-maxrate=80000 / vbv-bufsize=80000 / vbv-init=0.9 / min-vbv-fullness=50.0 / max-vbv-fullness=80.0 / crf-max=0.0 / crf-min=0.0 / ipratio=1.40 / pbratio=1.30 / aq-mode=2 / aq-strength=0.85 / cutree / zone-count=0 / no-strict-cbr / qg-size=32 / no-rc-grain / qpmax=69 / qpmin=0 / no-const-vbv / sar=1 / overscan=0 / videoformat=5 / range=0 / colorprim=1 / transfer=1 / colormatrix=1 / chromaloc=0 / display-window=0 / cll=0,0 / min-luma=0 / max-luma=1023 / log2-max-poc-lsb=8 / vui-timing-info / vui-hrd-info / slices=1 / no-opt-qp-pps / no-opt-ref-list-length-pps / no-multi-pass-opt-rps / scenecut-bias=0.05 / hist-threshold=0.03 / no-opt-cu-delta-qp / no-aq-motion / no-hdr10 / no-hdr10-opt / no-dhdr10-opt / no-idr-recovery-sei / analysis-reuse-level=0 / analysis-save-reuse-level=0 / analysis-load-reuse-level=0 / scale-factor=0 / refine-intra=0 / refine-inter=0 / refine-mv=1 / refine-ctu-distortion=0 / no-limit-sao / ctu-info=0 / no-lowpass-dct / refine-analysis-type=0 / copy-pic=1 / max-ausize-factor=1.0 / no-dynamic-refine / no-single-sei / no-hevc-aq / no-svt / no-field / qp-adaptation-range=1.00 / scenecut-aware-qp=0conformance-window-offsets / right=0 / bottom=0 / NTMzNTQ= / decoder-max-rate=0 / no-vbv-live-multi-pass
  35. Language                                 : English
  36. Default                                  : Yes
  37. Forced                                   : No
  38. Color range                              : Limited
  39. Color primaries                          : BT.709
  40. Transfer characteristics                 : BT.709
  41. Matrix coefficients                      : BT.709
  42. Audio #1
  43. ID                                       : 2
  44. Format                                   : DTS XLL
  45. Format/Info                              : Digital Theater Systems
  46. Commercial name                          : DTS-HD Master Audio
  47. Codec ID                                 : A_DTS
  48. Duration                                 : 1 h 42 min
  49. Bit rate mode                            : Variable
  50. Bit rate                                 : 1 571 kb/s
  51. Channel(s)                               : 2 channels
  52. Channel layout                           : L R
  53. Sampling rate                            : 48.0 kHz
  54. Frame rate                               : 93.750 FPS (512 SPF)
  55. Bit depth                                : 16 bits
  56. Compression mode                         : Lossless
  57. Stream size                              : 1.12 GiB (9%)
  58. Title                                    : Cantonese DTS-HD Master Audio 2.0 @ 1571 kbps
  59. Language                                 : Chinese
  60. Default                                  : Yes
  61. Forced                                   : No
  62. Audio #2
  63. ID                                       : 3
  64. Format                                   : DTS XLL
  65. Format/Info                              : Digital Theater Systems
  66. Commercial name                          : DTS-HD Master Audio
  67. Codec ID                                 : A_DTS
  68. Duration                                 : 1 h 42 min
  69. Bit rate mode                            : Variable
  70. Bit rate                                 : 1 604 kb/s
  71. Channel(s)                               : 2 channels
  72. Channel layout                           : L R
  73. Sampling rate                            : 48.0 kHz
  74. Frame rate                               : 93.750 FPS (512 SPF)
  75. Bit depth                                : 16 bits
  76. Compression mode                         : Lossless
  77. Stream size                              : 1.14 GiB (9%)
  78. Title                                    : Mandarin DTS-HD Master Audio 2.0 @ 1604 kbps
  79. Language                                 : Chinese
  80. Default                                  : No
  81. Forced                                   : No
  82. Text #1
  83. ID                                       : 4
  84. Format                                   : PGS
  85. Codec ID                                 : S_HDMV/PGS
  86. Codec ID/Info                            : Picture based subtitle format used on BDs/HD-DVDs
  87. Duration                                 : 1 h 39 min
  88. Bit rate                                 : 46.4 kb/s
  89. Count of elements                        : 2727
  90. Stream size                              : 32.8 MiB (0%)
  91. Title                                    : Cht/SUP  原盘繁体
  92. Language                                 : Chinese
  93. Default                                  : No
  94. Forced                                   : No
  95. Text #2
  96. ID                                       : 5
  97. Format                                   : PGS
  98. Codec ID                                 : S_HDMV/PGS
  99. Codec ID/Info                            : Picture based subtitle format used on BDs/HD-DVDs
  100. Duration                                 : 1 h 39 min
  101. Bit rate                                 : 45.4 kb/s
  102. Count of elements                        : 2727
  103. Stream size                              : 32.2 MiB (0%)
  104. Title                                    : Chs/SUP  原盘简体
  105. Language                                 : Chinese
  106. Default                                  : Yes
  107. Forced                                   : No
  108. Text #3
  109. ID                                       : 6
  110. Format                                   : PGS
  111. Codec ID                                 : S_HDMV/PGS
  112. Codec ID/Info                            : Picture based subtitle format used on BDs/HD-DVDs
  113. Duration                                 : 1 h 39 min
  114. Bit rate                                 : 47.2 kb/s
  115. Count of elements                        : 2727
  116. Stream size                              : 33.4 MiB (0%)
  117. Title                                    : Eng/SUP
  118. Language                                 : English
  119. Default                                  : No
  120. Forced                                   : No
  121. Menu
  122. 00:00:00.000                             : en:第 01 章
  123. 00:09:44.750                             : en:第 02 章
  124. 00:16:39.250                             : en:第 03 章
  125. 00:25:32.166                             : en:第 04 章
  126. 00:35:06.083                             : en:第 05 章
  127. 00:42:39.666                             : en:第 06 章
  128. 00:51:30.875                             : en:第 07 章
  129. 00:59:10.666                             : en:第 08 章
  130. 01:07:09.458                             : en:第 09 章
  131. 01:14:13.125                             : en:第 10 章
  132. 01:24:32.541                             : en:第 11 章
  133. 01:34:21.208                             : en:第 12 章


TAGS 动作 犯罪 /

磁力链:
  • magnet:?xt=urn:btih:7A6C451DF4C98DB2C3D45AC435497A52B0F120C1
上传的附件:
BT9527电影天堂 1、BT9527电影天堂提供的BT文件均来源于互联网抓取,只供网友学习交流、技术提升使用。
2、我们遵守BitTorrent点对点协议原则,任何版权问题请联系原资源发布商,我们不处理任何版权纠纷,谢谢!如有争议请联系邮箱:BT9527#hotmail.com(#换成@)
3、如果您发现某页面或地址有错误,请联系站长邮箱BT9527#hotmail.com(#换成@),我们会尽快处理。您的热心是对BT9527电影天堂最大的支持。
4、本站建议去正规影院观看电影以支持电影行业发展。
最新回复 (0)

你可以在 登录 or 注册 后,对此帖发表评论!

返回
发新帖