肉罢不能[中文字幕].Barbaque.2021.1080p.BluRay.DTS.x265-10bit-ENTHD 5.68GB

版主小s 24天前 1046



◎译  名 肉罢不能 / 肉罷不能(港) / Some Like It Rare
◎片  名 Barbaque
◎年  代 2021
◎产  地 法国
◎类  别 喜剧 / 恐怖
◎语  言 法语
◎上映日期 2021-10-27(法国)
◎IMDb链接 https://www.imdb.com/title/tt12887770/
◎豆瓣评分 6.9/10 (4722人评价)
◎豆瓣链接 https://movie.douban.com/subject/35384289/
◎片  长 87分钟
◎导  演 法布里斯·厄布埃 Fabrice Eboué (id:1336298)
◎编  剧 法布里斯·厄布埃 Fabrice Eboué (id:1336298)
◎演  员 玛琳娜·佛伊丝 Marina Fo?s (id:1005164)
       法布里斯·厄布埃 Fabrice Eboué (id:1336298)
       让-弗朗索瓦·凯雷 Jean-Fran?ois Cayrey (id:1441823)
       维尔日妮·奥克 Virginie Hocq (id:1331760)
       维克多·梅特莱特 Victor Meutelet (id:1406215)
       罗宾·希纳西 Roby Schinasi (id:1374009)
       Christophe Hondelatte Christophe Hondelatte (id:1174163)

◎简  介
  文森特(法布里斯·厄布埃 Fabrice Eboué 饰)和苏菲(玛琳娜·佛伊丝 Marina Fo?s 饰)是结婚多年的夫妻,两人共同经营着一家小小的肉店。肉店的生意并不是十分兴隆,与此同时,他们还要忍受素食主义者们时不时来这么一下子的“恐怖袭击”,再加上文森特和苏菲之间的感情早已经被时间消磨殆尽,终于,苏菲决定和文森特离婚。                                    
                                这一天,夫妻两人驾车行驶在夜路上,意外的撞死了一名骑自行车的男子,文森特认出了该男子就是早先袭击肉铺的那群素食主义者之一,于是将他的尸体带回了肉店进行分割,哪知道第二天,苏菲竟然误打误撞的将被分割后的大腿肉做成了火腿切片卖给了顾客。让文森特没有想到的是,这异常美味的火腿切片大受顾客的好评,一传十十传百,很快肉店门口就排起了长龙。

  1. ##### MediaInfo ######
  2. General
  3. Unique ID                                : 67090077698678316678576581215793785209 (0x32791436CBAEF385A437632DEDE52979)
  4. Complete name                            : Barbaque.2021.1080p.BluRay.DTS.x265-10bit-ENTHD.mkv
  5. Format                                   : Matroska
  6. Format version                           : Version 4
  7. File size                                : 5.68 GiB
  8. Duration                                 : 1 h 27 min
  9. Overall bit rate                         : 9 245 kb/s
  10. Movie name                               : Barbaque 2021 1080p BluRay DTS x265-10bit-HDS
  11. Encoded date                             : UTC 2022-06-03 02:39:06
  12. Writing application                      : mkvmerge v67.0.0 ('Under Stars') 64-bit
  13. Writing library                          : libebml v1.4.2 + libmatroska v1.6.4
  14. Video
  15. ID                                       : 1
  16. Format                                   : HEVC
  17. Format/Info                              : High Efficiency Video Coding
  18. Format profile                           : Main 10@L5.1@High
  19. Codec ID                                 : V_MPEGH/ISO/HEVC
  20. Duration                                 : 1 h 27 min
  21. Bit rate                                 : 7 718 kb/s
  22. Width                                    : 1 920 pixels
  23. Height                                   : 804 pixels
  24. Display aspect ratio                     : 2.40:1
  25. Frame rate mode                          : Constant
  26. Frame rate                               : 24.000 FPS
  27. Color space                              : YUV
  28. Chroma subsampling                       : 4:2:0
  29. Bit depth                                : 10 bits
  30. Bits/(Pixel*Frame)                       : 0.208
  31. Stream size                              : 4.74 GiB (83%)
  32. Title                                    : szlcug@HDSky
  33. Writing library                          : x265 - H.265/HEVC codec
  34. Default                                  : Yes
  35. Forced                                   : No
  36. Audio
  37. ID                                       : 2
  38. Format                                   : DTS
  39. Format/Info                              : Digital Theater Systems
  40. Codec ID                                 : A_DTS
  41. Duration                                 : 1 h 27 min
  42. Bit rate mode                            : Constant
  43. Bit rate                                 : 1 509 kb/s
  44. Channel(s)                               : 6 channels
  45. Channel layout                           : C L R Ls Rs LFE
  46. Sampling rate                            : 48.0 kHz
  47. Frame rate                               : 93.750 FPS (512 SPF)
  48. Bit depth                                : 24 bits
  49. Compression mode                         : Lossy
  50. Stream size                              : 949 MiB (16%)
  51. Title                                    : French
  52. Language                                 : French
  53. Default                                  : Yes
  54. Forced                                   : No
  55. Text
  56. ID                                       : 3
  57. Format                                   : PGS
  58. Muxing mode                              : zlib
  59. Codec ID                                 : S_HDMV/PGS
  60. Codec ID/Info                            : Picture based subtitle format used on BDs/HD-DVDs
  61. Duration                                 : 1 h 22 min
  62. Bit rate                                 : 31.5 kb/s
  63. Count of elements                        : 2571
  64. Stream size                              : 18.5 MiB (0%)
  65. Title                                    : CHS
  66. Language                                 : Chinese
  67. Default                                  : Yes
  68. Forced                                   : No
  69. Menu
  70. 00:00:00.000                             : en:第 01 章
  71. 00:09:01.125                             : en:第 02 章
  72. 00:15:32.958                             : en:第 03 章
  73. 00:24:29.083                             : en:第 04 章
  74. 00:32:21.500                             : en:第 05 章
  75. 00:37:20.250                             : en:第 06 章
  76. 00:43:43.583                             : en:第 07 章
  77. 00:51:26.583                             : en:第 08 章
  78. 00:58:00.542                             : en:第 09 章
  79. 01:03:54.750                             : en:第 10 章
  80. 01:15:49.000                             : en:第 11 章
  81. 01:23:49.708                             : en:第 12 章
复制代码




TAGS 恐怖 喜剧 /

磁力链:
  • magnet:?xt=urn:btih:35BA95E1A16CBE916B6C5B2F8AA8147E4970B2A0
上传的附件:
BT9527电影天堂 1、BT9527电影天堂提供的BT文件均来源于互联网抓取,只供网友学习交流、技术提升使用。
2、我们遵守BitTorrent点对点协议原则,任何版权问题请联系原资源发布商,我们不处理任何版权纠纷,谢谢!如有争议请联系邮箱:BT9527#hotmail.com(#换成@)
3、如果您发现某页面或地址有错误,请联系站长邮箱BT9527#hotmail.com(#换成@),我们会尽快处理。您的热心是对BT9527电影天堂最大的支持。
4、本站建议去正规影院观看电影以支持电影行业发展。
最新回复 (0)

你可以在 登录 or 注册 后,对此帖发表评论!

返回