机械姬[国英多音轨/中英字幕].Ex.Machina.2015.BluRay.1080p.x265.10bit.2Audio-MiniHD 4.02GB

版主小s 26天前 347



◎译  名 机械姬 / 人造意识(台) / 机器夏娃 / 觉醒前夜
◎片  名 Ex Machina
◎年  代 2014
◎产  地 英国
◎类  别 科幻 / 悬疑 / 惊悚
◎语  言 英语
◎上映日期 2014-12-16(BFI影展) / 2015-01-21(英国)
◎IMDb链接 https://www.imdb.com/title/tt0470752/
◎豆瓣评分 7.6/10 (207120人评价)
◎豆瓣链接 https://movie.douban.com/subject/4160540/
◎片  长 108分钟
◎导  演 亚历克斯·加兰 Alex Garland (id:1284570)
◎编  剧 亚历克斯·加兰 Alex Garland (id:1284570)
◎演  员 艾丽西亚·维坎德 Alicia Vikander (id:1233154)
       多姆纳尔·格里森 Domhnall Gleeson (id:1313116)
       奥斯卡·伊萨克 Oscar Isaac (id:1012481)
       水野索诺娅 Sonoya Mizuno (id:1347723)
       克里·约翰逊 Corey Johnson (id:1045054)
       嘎娜·巴亚尔赛汗 Gana Bayarsaikhan (id:1408636)
       伊莲娜·艾尔米纳斯 Elina Alminas (id:1408637)
       李仙湖 Chelsea Li (id:1347589)
       黛博拉·罗桑 Deborah Rosan (id:1333555)
       乔安娜·希雅 Johanna Thea (id:1397747)
       艾薇·维 Evie Wray (id:1333557)
       伊莱·布什 Eli Bush (id:1387571)
       阿隆·雷奇 Allon Reich (id:1382949)
       吉奥夫·巴罗 Geoff Barrow (id:1065961)
       Ben Salisbury Ben Salisbury (id:1433360)
       罗伯·哈迪 Rob Hardy (id:1303822)
       萨米·谢尔顿 Sammy Sheldon (id:1286999)
       马克·威廉姆斯·阿丁顿 Mark Williams Ardington (id:1355124)
       保罗·诺里斯 Paul Norris (id:1355123)
       海莉·伊斯顿·斯垂特 Hayley Easton Street (id:1472352)

◎简  介
  效力于某知名搜索引擎公司的程序员加利·史密斯(多姆纳尔·格利森 Domhnall Gleeson 饰)幸运地抽中老板纳森(奥斯卡?伊萨克 Oscar Isaac 饰)所开出的大奖,他将受邀前往位于深山的别墅中和老板共度假期。在与世隔绝的别墅中,纳森亲切地接待了这位员工。 事实上他邀请加利到来还有另一个目的,那就是协助他完成其所开发的智能机器人的测试。天才一般的纳森研制了具有独立思考能力的智能机器人伊娃(艾丽西亚·维坎德 Alicia Vikander 饰),为了确认她是否具有独立思考的能力,他希望加利能为伊娃进行著名的“图灵测试”。似乎从第一眼开始,加利便为这台有着宛如人类般姣好容颜的机器人所吸引。                                    
                                在随后的交流中,他所面对的似乎不是冷冰冰的机器,而更像是一个被无辜囚禁起来的可怜少女……

◎获奖情况 (共30项)
  第88届奥斯卡金像奖 (2016)
  最佳原创剧本(提名)
   └──亚历克斯·加兰 (id:1284570)
  最佳视觉效果

  第73届金球奖 (2016)
  电影类 最佳女配角(提名)
   └──艾丽西亚·维坎德 (id:1233154)

  第69届英国电影学院奖 (2016)
  电影奖 最佳英国影片(提名)
  电影奖 最佳女配角(提名)
   └──艾丽西亚·维坎德 (id:1233154)
  电影奖 最佳原创剧本(提名)
   └──亚历克斯·加兰 (id:1284570)
  电影奖 英国本土杰出处女作(提名)
   └──亚历克斯·加兰 (id:1284570)
  电影奖 最佳特殊视觉效果(提名)

  第68届美国导演工会奖 (2016)
  最佳新人导演奖
   └──亚历克斯·加兰 (id:1284570)

  第27届美国制片人工会奖 (2016)
  最佳电影制片人奖(提名)

  第18届美国服装设计工会奖 (2016)
  科幻/奇幻题材电影最佳服装设计(提名)

  第87届美国国家评论协会奖 (2015)
  十佳独立电影

  第21届美国评论家选择电影奖 (2016)
  最佳科幻/恐怖片
  最佳原创剧本(提名)
   └──亚历克斯·加兰 (id:1284570)
  最佳视觉效果(提名)

  第18届英国独立电影奖 (2015)
  最佳英国独立电影
  最佳导演
   └──亚历克斯·加兰 (id:1284570)
  最佳编剧
   └──亚历克斯·加兰 (id:1284570)
  技术成就奖

  第14届华盛顿影评人协会奖 (2015)
  最佳女配角
   └──艾丽西亚·维坎德 (id:1233154)

  第41届洛杉矶影评人协会奖 (2015)
  最佳女配角
   └──艾丽西亚·维坎德 (id:1233154)

  第28届芝加哥影评人协会奖 (2015)
  最佳女配角
   └──艾丽西亚·维坎德 (id:1233154)
  最具潜力导演
   └──亚历克斯·加兰 (id:1284570)

  第19届美国在线影评人协会奖 (2015)
  最佳影片(提名)
  最佳男配角
   └──奥斯卡·伊萨克 (id:1012481)
  最佳原创剧本(提名)
   └──亚历克斯·加兰 (id:1284570)

  第2届豆瓣电影年度榜单 (2015)
  最受关注的非院线电影(提名)
  5月最受关注电影(提名)

  第6届豆瓣电影鑫像奖 (2016)
  鑫豆单元 最佳科幻/动作片(提名)
  鑫豆单元 最佳惊悚/悬疑片(提名)

  1. ##### MediaInfo ######
  2. General
  3. Unique ID                                : 172436929619111021921785985381989733100 (0x81BA2506492B9385AC272842E509D2EC)
  4. Complete name                            : Ex.Machina.2015.BluRay.1080p.x265.10bit.2Audio-MiniHD.mkv
  5. Format                                   : Matroska
  6. Format version                           : Version 4
  7. File size                                : 4.02 GiB
  8. Duration                                 : 1 h 48 min
  9. Overall bit rate                         : 5 323 kb/s
  10. Encoded date                             : UTC 2017-09-20 05:09:59
  11. Writing application                      : mkvmerge v11.0.0 ('Alive') 64bit
  12. Writing library                          : libebml v1.3.4 + libmatroska v1.4.5
  13. Video
  14. ID                                       : 1
  15. Format                                   : HEVC
  16. Format/Info                              : High Efficiency Video Coding
  17. Codec ID                                 : V_MPEGH/ISO/HEVC
  18. Duration                                 : 1 h 48 min
  19. Bit rate                                 : 3 896 kb/s
  20. Width                                    : 1 920 pixels
  21. Height                                   : 804 pixels
  22. Display aspect ratio                     : 2.40:1
  23. Frame rate mode                          : Constant
  24. Frame rate                               : 23.976 (24000/1001/53354) FPS
  25. Bits/(Pixel*Frame)                       : 0.105
  26. Stream size                              : 2.94 GiB (73%)
  27. Default                                  : Yes
  28. Forced                                   : No
  29. Audio #1
  30. ID                                       : 2
  31. Format                                   : AC-3
  32. Format/Info                              : Audio Coding 3
  33. Commercial name                          : Dolby Digital
  34. Codec ID                                 : A_AC3
  35. Duration                                 : 1 h 48 min
  36. Bit rate mode                            : Constant
  37. Bit rate                                 : 640 kb/s
  38. Channel(s)                               : 6 channels
  39. Channel layout                           : L R C LFE Ls Rs
  40. Sampling rate                            : 48.0 kHz
  41. Frame rate                               : 31.250 FPS (1536 SPF)
  42. Compression mode                         : Lossy
  43. Stream size                              : 494 MiB (12%)
  44. Language                                 : English
  45. Service kind                             : Complete Main
  46. Default                                  : Yes
  47. Forced                                   : No
  48. Audio #2
  49. ID                                       : 3
  50. Format                                   : AC-3
  51. Format/Info                              : Audio Coding 3
  52. Commercial name                          : Dolby Digital
  53. Codec ID                                 : A_AC3
  54. Duration                                 : 1 h 48 min
  55. Bit rate mode                            : Constant
  56. Bit rate                                 : 640 kb/s
  57. Channel(s)                               : 6 channels
  58. Channel layout                           : L R C LFE Ls Rs
  59. Sampling rate                            : 48.0 kHz
  60. Frame rate                               : 31.250 FPS (1536 SPF)
  61. Compression mode                         : Lossy
  62. Stream size                              : 494 MiB (12%)
  63. Language                                 : Chinese
  64. Service kind                             : Complete Main
  65. Default                                  : No
  66. Forced                                   : No
  67. Text #1
  68. ID                                       : 4
  69. Format                                   : PGS
  70. Muxing mode                              : zlib
  71. Codec ID                                 : S_HDMV/PGS
  72. Codec ID/Info                            : Picture based subtitle format used on BDs/HD-DVDs
  73. Duration                                 : 1 h 38 min
  74. Bit rate                                 : 10.0 kb/s
  75. Count of elements                        : 2497
  76. Stream size                              : 7.06 MiB (0%)
  77. Language                                 : English
  78. Default                                  : Yes
  79. Forced                                   : No
  80. Text #2
  81. ID                                       : 5
  82. Format                                   : PGS
  83. Muxing mode                              : zlib
  84. Codec ID                                 : S_HDMV/PGS
  85. Codec ID/Info                            : Picture based subtitle format used on BDs/HD-DVDs
  86. Duration                                 : 1 h 45 min
  87. Bit rate                                 : 23.4 kb/s
  88. Count of elements                        : 3622
  89. Stream size                              : 17.6 MiB (0%)
  90. Language                                 : Chinese
  91. Default                                  : No
  92. Forced                                   : No
  93. Text #3
  94. ID                                       : 6
  95. Format                                   : PGS
  96. Muxing mode                              : zlib
  97. Codec ID                                 : S_HDMV/PGS
  98. Codec ID/Info                            : Picture based subtitle format used on BDs/HD-DVDs
  99. Duration                                 : 1 h 45 min
  100. Bit rate                                 : 24.0 kb/s
  101. Count of elements                        : 3622
  102. Stream size                              : 18.0 MiB (0%)
  103. Language                                 : Chinese
  104. Default                                  : No
  105. Forced                                   : No
  106. Text #4
  107. ID                                       : 7
  108. Format                                   : PGS
  109. Muxing mode                              : zlib
  110. Codec ID                                 : S_HDMV/PGS
  111. Codec ID/Info                            : Picture based subtitle format used on BDs/HD-DVDs
  112. Duration                                 : 1 h 45 min
  113. Bit rate                                 : 30.7 kb/s
  114. Count of elements                        : 3622
  115. Stream size                              : 23.1 MiB (1%)
  116. Language                                 : Chinese
  117. Default                                  : No
  118. Forced                                   : No
  119. Text #5
  120. ID                                       : 8
  121. Format                                   : PGS
  122. Muxing mode                              : zlib
  123. Codec ID                                 : S_HDMV/PGS
  124. Codec ID/Info                            : Picture based subtitle format used on BDs/HD-DVDs
  125. Duration                                 : 1 h 45 min
  126. Bit rate                                 : 31.7 kb/s
  127. Count of elements                        : 3622
  128. Stream size                              : 23.9 MiB (1%)
  129. Language                                 : Chinese
  130. Default                                  : No
  131. Forced                                   : No
  132. Text #6
  133. ID                                       : 9
  134. Format                                   : PGS
  135. Muxing mode                              : zlib
  136. Codec ID                                 : S_HDMV/PGS
  137. Codec ID/Info                            : Picture based subtitle format used on BDs/HD-DVDs
  138. Duration                                 : 1 h 46 min
  139. Bit rate                                 : 8 754 b/s
  140. Count of elements                        : 2138
  141. Stream size                              : 6.69 MiB (0%)
  142. Language                                 : Chinese
  143. Default                                  : No
  144. Forced                                   : No
  145. Text #7
  146. ID                                       : 10
  147. Format                                   : PGS
  148. Muxing mode                              : zlib
  149. Codec ID                                 : S_HDMV/PGS
  150. Codec ID/Info                            : Picture based subtitle format used on BDs/HD-DVDs
  151. Duration                                 : 1 h 46 min
  152. Bit rate                                 : 9 510 b/s
  153. Count of elements                        : 2138
  154. Stream size                              : 7.27 MiB (0%)
  155. Language                                 : Chinese
  156. Default                                  : No
  157. Forced                                   : No
  158. Text #8
  159. ID                                       : 11
  160. Format                                   : PGS
  161. Muxing mode                              : zlib
  162. Codec ID                                 : S_HDMV/PGS
  163. Codec ID/Info                            : Picture based subtitle format used on BDs/HD-DVDs
  164. Duration                                 : 1 h 46 min
  165. Bit rate                                 : 9 975 b/s
  166. Count of elements                        : 2138
  167. Stream size                              : 7.62 MiB (0%)
  168. Language                                 : Chinese
  169. Default                                  : No
  170. Forced                                   : No
  171. Menu
  172. 00:00:00.000                             : en:Chapter 01
  173. 00:04:34.941                             : en:Chapter 02
  174. 00:11:16.634                             : en:Chapter 03
  175. 00:15:08.157                             : en:Chapter 04
  176. 00:23:38.750                             : en:Chapter 05
  177. 00:31:57.999                             : en:Chapter 06
  178. 00:36:05.162                             : en:Chapter 07
  179. 00:40:26.757                             : en:Chapter 08
  180. 00:45:56.378                             : en:Chapter 09
  181. 00:53:28.955                             : en:Chapter 10
  182. 01:00:26.080                             : en:Chapter 11
  183. 01:04:01.254                             : en:Chapter 12
  184. 01:07:19.076                             : en:Chapter 13
  185. 01:13:22.022                             : en:Chapter 14
  186. 01:16:56.111                             : en:Chapter 15
  187. 01:21:36.516                             : en:Chapter 16
  188. 01:27:36.834                             : en:Chapter 17
  189. 01:32:54.151                             : en:Chapter 18
  190. 01:38:51.008                             : en:Chapter 19
  191. 01:42:26.932                             : en:Chapter 20
复制代码




TAGS 惊悚 悬疑 科幻 /

磁力链:
  • magnet:?xt=urn:btih:D14E3D1A1C1F751B62C85A26EAFCCDB185B4DD45
上传的附件:
BT9527电影天堂 1、BT9527电影天堂提供的BT文件均来源于互联网抓取,只供网友学习交流、技术提升使用。
2、我们遵守BitTorrent点对点协议原则,任何版权问题请联系原资源发布商,我们不处理任何版权纠纷,谢谢!如有争议请联系邮箱:BT9527#hotmail.com(#换成@)
3、如果您发现某页面或地址有错误,请联系站长邮箱BT9527#hotmail.com(#换成@),我们会尽快处理。您的热心是对BT9527电影天堂最大的支持。
4、本站建议去正规影院观看电影以支持电影行业发展。
最新回复 (0)

你可以在 登录 or 注册 后,对此帖发表评论!

返回
发新帖