步履不停[中英字幕].Still.Walking.2008.BluRay.1080p.x265.10bit-MiniHD 4.76GB

版主小s 1月前 249



◎译  名 步履不停 / 横山家之味(港 / 台) / 步伐不停 / 即使你走啊走 / 安静的行走 / Still Walking / Even If You Walk and Walk
◎片  名 歩いても 歩いても
◎年  代 2008
◎产  地 日本
◎类  别 剧情 / 家庭
◎语  言 日语
◎上映日期 2008-06-28(日本)
◎IMDb链接 https://www.imdb.com/title/tt1087578/
◎豆瓣评分 8.8/10 (252179人评价)
◎豆瓣链接 https://movie.douban.com/subject/2222996/
◎片  长 115分钟
◎导  演 是枝裕和 Hirokazu Koreeda (id:1274351)
◎编  剧 是枝裕和 Hirokazu Koreeda (id:1274351)
◎演  员 阿部宽 Hiroshi Abe (id:1012581)
       夏川结衣 Yui Natsukawa (id:1018741)
       江原由希子 YOU (id:1223702)
       高桥和也 Kazuya Takahashi (id:1045940)
       田中祥平 Shohei Tanaka (id:1320995)
       野本萤 Hotaru Nomoto (id:1323514)
       林凌雅 Ry?ga Hayashi (id:1322234)
       寺岛进 Susumu Terajima (id:1041631)
       加藤治子 Haruko Kato (id:1038928)
       树木希林 Kirin Kiki (id:1014853)
       原田芳雄 Yoshio Harada (id:1032754)
       Gontiti Gontiti (id:1400294)
       山崎裕 Yutaka Yamazaki (id:1353498)
       是枝裕和 Hirokazu Koreeda (id:1274351)
       矶见俊裕 Toshihiro Isomi (id:1287417)

◎简  介
  “人生路上步履不停,为何总是慢一拍”。                                    
                                位于偏远小镇的横山一家,生活平静祥和。父亲恭平(原田芳雄 饰)是业已退休的医生,却时时牵挂小镇诊所内的事务。长子纯平继承了父亲的事业,却在15年前为救落水儿童而溺水身亡。次子良多(阿部宽 饰)与父亲意见相左,执意前往异地当起了绘画修复师。多年的打拼换来的却是失业,困顿的良多与带着孩子的由香里(夏川结衣 饰)结婚,相互扶持,继续生活。                                    
                                又逢纯平的忌日,良多和姐姐千奈美(YOU 饰)带着家人分别赶回家中。平静的横山家再次热闹起来……                                    
                                本片荣获2009年蓝丝带最佳导演奖和最佳女配角奖(树木希林)、2008年报知电影和2009年电影旬报最佳女配角(树木希林)、2009年每日电影奖最佳男主角(阿部宽)、2008年马塔布拉塔国际电影节评审团大奖和最佳影片。

◎获奖情况 (共4项)
  第32届日本电影学院奖 (2009)
  最佳女配角(提名)
   └──树木希林 (id:1014853)

  第3届亚洲电影大奖 (2009)
  最佳导演
   └──是枝裕和 (id:1274351)
  最佳女配角(提名)
   └──树木希林 (id:1014853)

  第33届报知映画赏 (2008)
  最佳女配角
   └──树木希林 (id:1014853)

  1. ##### MediaInfo ######
  2. General
  3. Unique ID                                : 251239548445146987772230584469113038280 (0xBD02FA19D1F2C1D080C128DC92A465C8)
  4. Complete name                            : Still.Walking.2008.BluRay.1080p.x265.10bit-MiniHD.mkv
  5. Format                                   : Matroska
  6. Format version                           : Version 4
  7. File size                                : 4.76 GiB
  8. Duration                                 : 1 h 55 min
  9. Overall bit rate                         : 5 883 kb/s
  10. Encoded date                             : UTC 2017-09-28 02:30:57
  11. Writing application                      : mkvmerge v11.0.0 ('Alive') 64bit
  12. Writing library                          : libebml v1.3.4 + libmatroska v1.4.5
  13. Video
  14. ID                                       : 1
  15. Format                                   : HEVC
  16. Format/Info                              : High Efficiency Video Coding
  17. Codec ID                                 : V_MPEGH/ISO/HEVC
  18. Duration                                 : 1 h 55 min
  19. Bit rate                                 : 5 446 kb/s
  20. Width                                    : 1 920 pixels
  21. Height                                   : 1 036 pixels
  22. Display aspect ratio                     : 1.85:1
  23. Frame rate mode                          : Constant
  24. Frame rate                               : 23.976 (24000/1001/53354) FPS
  25. Bits/(Pixel*Frame)                       : 0.114
  26. Stream size                              : 4.41 GiB (93%)
  27. Default                                  : Yes
  28. Forced                                   : No
  29. Audio
  30. ID                                       : 2
  31. Format                                   : AC-3
  32. Format/Info                              : Audio Coding 3
  33. Commercial name                          : Dolby Digital
  34. Codec ID                                 : A_AC3
  35. Duration                                 : 1 h 55 min
  36. Bit rate mode                            : Constant
  37. Bit rate                                 : 320 kb/s
  38. Channel(s)                               : 2 channels
  39. Channel layout                           : L R
  40. Sampling rate                            : 48.0 kHz
  41. Frame rate                               : 31.250 FPS (1536 SPF)
  42. Compression mode                         : Lossy
  43. Stream size                              : 265 MiB (5%)
  44. Language                                 : Japanese
  45. Service kind                             : Complete Main
  46. Default                                  : Yes
  47. Forced                                   : No
  48. Text #1
  49. ID                                       : 3
  50. Format                                   : PGS
  51. Muxing mode                              : zlib
  52. Codec ID                                 : S_HDMV/PGS
  53. Codec ID/Info                            : Picture based subtitle format used on BDs/HD-DVDs
  54. Language                                 : English
  55. Default                                  : Yes
  56. Forced                                   : No
  57. Text #2
  58. ID                                       : 4
  59. Format                                   : PGS
  60. Muxing mode                              : zlib
  61. Codec ID                                 : S_HDMV/PGS
  62. Codec ID/Info                            : Picture based subtitle format used on BDs/HD-DVDs
  63. Language                                 : Chinese
  64. Default                                  : No
  65. Forced                                   : No
  66. Text #3
  67. ID                                       : 5
  68. Format                                   : PGS
  69. Muxing mode                              : zlib
  70. Codec ID                                 : S_HDMV/PGS
  71. Codec ID/Info                            : Picture based subtitle format used on BDs/HD-DVDs
  72. Language                                 : Chinese
  73. Default                                  : No
  74. Forced                                   : No
  75. Text #4
  76. ID                                       : 6
  77. Format                                   : PGS
  78. Muxing mode                              : zlib
  79. Codec ID                                 : S_HDMV/PGS
  80. Codec ID/Info                            : Picture based subtitle format used on BDs/HD-DVDs
  81. Language                                 : Chinese
  82. Default                                  : No
  83. Forced                                   : No
  84. Menu
  85. 00:00:00.000                             : en:Chapter 01
  86. 00:06:06.616                             : en:Chapter 02
  87. 00:11:57.299                             : en:Chapter 03
  88. 00:18:51.421                             : en:Chapter 04
  89. 00:22:45.572                             : en:Chapter 05
  90. 00:27:29.564                             : en:Chapter 06
  91. 00:34:08.921                             : en:Chapter 07
  92. 00:38:10.871                             : en:Chapter 08
  93. 00:43:47.416                             : en:Chapter 09
  94. 00:51:16.823                             : en:Chapter 10
  95. 00:57:52.886                             : en:Chapter 11
  96. 01:05:19.498                             : en:Chapter 12
  97. 01:14:47.566                             : en:Chapter 13
  98. 01:21:17.998                             : en:Chapter 14
  99. 01:28:23.923                             : en:Chapter 15
  100. 01:34:34.794                             : en:Chapter 16
  101. 01:39:02.561                             : en:Chapter 17
  102. 01:44:30.180                             : en:Chapter 18
  103. 01:48:50.774                             : en:Chapter 19
复制代码




TAGS 剧情 家庭 /

磁力链:
  • magnet:?xt=urn:btih:6713B98CC906EBC66C75A28451B5B22C2F8DD21D
上传的附件:
BT9527电影天堂 1、BT9527电影天堂提供的BT文件均来源于互联网抓取,只供网友学习交流、技术提升使用。
2、我们遵守BitTorrent点对点协议原则,任何版权问题请联系原资源发布商,我们不处理任何版权纠纷,谢谢!如有争议请联系邮箱:BT9527#hotmail.com(#换成@)
3、如果您发现某页面或地址有错误,请联系站长邮箱BT9527#hotmail.com(#换成@),我们会尽快处理。您的热心是对BT9527电影天堂最大的支持。
4、本站建议去正规影院观看电影以支持电影行业发展。
最新回复 (0)

你可以在 登录 or 注册 后,对此帖发表评论!

返回
发新帖