横冲直撞大逃亡[中英字幕].The.Sugarland.Express.1974.BluRay.1080p.x265.10bit-MiniHD 4.46GB

版主小s 21天前 141



◎译  名 横冲直撞大逃亡 / 傻妹大逃亡 / 甜园不归路
◎片  名 The Sugarland Express
◎年  代 1974
◎产  地 美国
◎类  别 剧情 / 犯罪 / 冒险
◎语  言 英语
◎上映日期 1974-10-19(美国)
◎IMDb链接 https://www.imdb.com/title/tt0072226/
◎豆瓣评分 7.1/10 (910人评价)
◎豆瓣链接 https://movie.douban.com/subject/1298386/
◎片  长 110分钟
◎导  演 史蒂文·斯皮尔伯格 Steven Spielberg (id:1054440)
◎编  剧 哈尔·巴伍德 Hal Barwood (id:1278029)
       马修·罗宾斯 Matthew Robbins (id:1295742)
       史蒂文·斯皮尔伯格 Steven Spielberg (id:1054440)
◎演  员 歌蒂·韩 Goldie Hawn (id:1041107)
       本·约翰逊 Ben Johnson (id:1107936)
       迈克尔·萨克斯 Michael Sacks (id:1148032)
       威廉·阿瑟东 William Atherton (id:1022729)
       格雷戈里·沃尔科特 Gregory Walcott (id:1165188)
       斯蒂夫·卡纳利 Steve Kanaly (id:1032269)
       Harrison Zanuck Harrison Zanuck (id:1033235)
       A.L. Camp A.L. Camp (id:1072155)
       Bill Thurman Bill Thurman (id:1153400)
       迪恩史密斯 Dean Smith (id:1150982)
       麦瑞尔·康纳利 Merrill Connally (id:1076762)
       Jessie Lee Fulton Jessie Lee Fulton (id:1083667)
       Roger Ernest Roger Ernest (id:1087069)
       James N. Harrell James N. Harrell (id:1096609)
       Big John Hamilton Big John Hamilton (id:1096622)
       Gordon Hurst Gordon Hurst (id:1108912)
       Guich Koock Guich Koock (id:1112181)
       Kenneth Hudgins Kenneth Hudgins (id:1097181)
       理查德·D·扎努克 Richard D. Zanuck (id:1036816)
       大卫·布朗 David Brown (id:1071554)
       约翰·威廉姆斯 John Williams (id:1054692)
       维尔莫什·日格蒙德 Vilmos Zsigmond (id:1019204)
       弗娜·菲尔兹 Verna Fields (id:1000909)
       爱德华·M·艾布拉姆斯 Edward M. Abroms (id:1276190)
       迈克·芬顿 Mike Fenton (id:1283570)
       Shari Rhodes Shari Rhodes (id:1295552)
       乔·阿尔夫斯 Joe Alves (id:1018632)
       詹姆斯·法戈 James Fargo (id:1023345)

◎简  介
  这是根据一宗真实的新闻事件改编而成。描述穷盗犯克鲁的妻子鲁琴,因为不愤社会福利机构把他们的孩子强行送给别人收养,乃以探监为名,协助其夫逃狱,并以一名警员为人质,开着长途汽车去寻子。警方投鼠忌器,不但无法逮捕克鲁与鲁琴两夫妇,还派出庞大车队沿途护送。

◎获奖情况 (共2项)
  第27届戛纳电影节 (1974)
  主竞赛单元 金棕榈奖(提名)
   └──史蒂文·斯皮尔伯格 (id:1054440)
  主竞赛单元 最佳编剧

  1. ##### MediaInfo ######
  2. General
  3. Unique ID                                : 244007317178532913965025536230508722591 (0xB7921991C297C4AFBD92E6B914F3F99F)
  4. Complete name                            : The.Sugarland.Express.1974.BluRay.1080p.x265.10bit-MiniHD.mkv
  5. Format                                   : Matroska
  6. Format version                           : Version 4
  7. File size                                : 4.45 GiB
  8. Duration                                 : 1 h 49 min
  9. Overall bit rate                         : 5 802 kb/s
  10. Encoded date                             : UTC 2017-04-21 03:31:20
  11. Writing application                      : mkvmerge v9.7.1 ('Pandemonium') 64bit
  12. Writing library                          : libebml v1.3.4 + libmatroska v1.4.5
  13. Video
  14. ID                                       : 1
  15. Format                                   : HEVC
  16. Format/Info                              : High Efficiency Video Coding
  17. Format profile                           : Main 10@L4@Main
  18. Codec ID                                 : V_MPEGH/ISO/HEVC
  19. Duration                                 : 1 h 49 min
  20. Bit rate                                 : 5 367 kb/s
  21. Width                                    : 1 920 pixels
  22. Height                                   : 816 pixels
  23. Display aspect ratio                     : 2.35:1
  24. Frame rate mode                          : Constant
  25. Frame rate                               : 23.976 (24000/1001/53354) FPS
  26. Color space                              : YUV
  27. Chroma subsampling                       : 4:2:0
  28. Bit depth                                : 10 bits
  29. Bits/(Pixel*Frame)                       : 0.143
  30. Stream size                              : 4.12 GiB (92%)
  31. Writing library                          : x265 2.3+24-a0eee4b41185:[Windows][GCC 6.3.0][64 bit] 10bit
  32. Encoding settings                        : cpuid=533541173503 / frame-threads=6 / numa-pools=36 / wpp / no-pmode / no-pme / no-psnr / no-ssim / log-level=2 / input-csp=1 / input-res=1920x816 / interlace=0 / total-frames=158060 / level-idc=0 / high-tier=1 / uhd-bd=0 / ref=5 / no-allow-non-conformance / no-repeat-headers / annexb / no-aud / no-hrd / info / hash=0 / no-temporal-layers / no-open-gop / min-keyint=1 / keyint=360 / bframes=8 / b-adapt=2 / b-pyramid / bframe-bias=0 / rc-lookahead=60 / lookahead-slices=4 / NTMzNTQ=uuDQuD2mJt9fsCf / scenecut=40 / no-intra-refresh / ctu=32 / min-cu-size=8 / rect / no-amp / max-tu-size=16 / tu-inter-depth=2 / tu-intra-depth=2 / limit-tu=4 / rdoq-level=2 / dynamic-rd=0.00 / signhide / no-tskip / nr-intra=0 / nr-inter=0 / no-constrained-intra / no-strong-intra-smoothing / max-merge=3 / limit-refs=2 / limit-modes / me=3 / subme=5 / merange=25 / temporal-mvp / weightp / weightb / no-analyze-src-pics / deblock=-1:-1 / no-sao / no-sao-non-deblock / rd=4 / no-early-skip / rskip / no-fast-intra / no-tskip-fast / no-cu-lossless / b-intra / rdpenalty=1 / psy-rd=0.00 / psy-rdoq=5.00 / no-rd-refine / analysis-mode=0 / no-lossless / cbqpoffs=-2 / crqpoffs=-2 / rc=crf / crf=21.0 / qcomp=0.65 / qpstep=4 / stats-write=0 / stats-read=0 / ipratio=1.40 / pbratio=1.30 / aq-mode=2 / aq-strength=0.70 / cutree / zone-count=0 / no-strict-cbr / qg-size=16 / no-rc-grain / qpmax=69 / qpmin=0 / sar=0 / overscan=0 / videoformat=5 / range=0 / colorprim=1 / transfer=2 / colormatrix=2 / chromaloc=0 / display-window=0 / max-cll=0,0 / min-luma=0 / max-luma=1023 / log2-max-poc-lsb=8 / vui-timing-info / vui-hrd-info / slices=1 / opt-qp-pps / opt-ref-list-length-pps / no-multi-pass-opt-rps / scenecut-bias=0.05 / no-opt-cu-delta-qp / no-aq-motion / no-hdr / no-hdr-opt / refine-level=5
  33. Default                                  : Yes
  34. Forced                                   : No
  35. Color range                              : Limited
  36. Color primaries                          : BT.709
  37. Audio
  38. ID                                       : 2
  39. Format                                   : AC-3
  40. Format/Info                              : Audio Coding 3
  41. Commercial name                          : Dolby Digital
  42. Codec ID                                 : A_AC3
  43. Duration                                 : 1 h 49 min
  44. Bit rate mode                            : Constant
  45. Bit rate                                 : 320 kb/s
  46. Channel(s)                               : 2 channels
  47. Channel layout                           : L R
  48. Sampling rate                            : 48.0 kHz
  49. Frame rate                               : 31.250 FPS (1536 SPF)
  50. Compression mode                         : Lossy
  51. Stream size                              : 251 MiB (6%)
  52. Language                                 : English
  53. Service kind                             : Complete Main
  54. Default                                  : Yes
  55. Forced                                   : No
  56. Text #1
  57. ID                                       : 3
  58. Format                                   : PGS
  59. Muxing mode                              : zlib
  60. Codec ID                                 : S_HDMV/PGS
  61. Codec ID/Info                            : Picture based subtitle format used on BDs/HD-DVDs
  62. Language                                 : English
  63. Default                                  : Yes
  64. Forced                                   : No
  65. Text #2
  66. ID                                       : 4
  67. Format                                   : PGS
  68. Muxing mode                              : zlib
  69. Codec ID                                 : S_HDMV/PGS
  70. Codec ID/Info                            : Picture based subtitle format used on BDs/HD-DVDs
  71. Language                                 : Chinese
  72. Default                                  : No
  73. Forced                                   : No
  74. Text #3
  75. ID                                       : 5
  76. Format                                   : PGS
  77. Muxing mode                              : zlib
  78. Codec ID                                 : S_HDMV/PGS
  79. Codec ID/Info                            : Picture based subtitle format used on BDs/HD-DVDs
  80. Language                                 : Chinese
  81. Default                                  : No
  82. Forced                                   : No
  83. Text #4
  84. ID                                       : 6
  85. Format                                   : PGS
  86. Muxing mode                              : zlib
  87. Codec ID                                 : S_HDMV/PGS
  88. Codec ID/Info                            : Picture based subtitle format used on BDs/HD-DVDs
  89. Language                                 : Chinese
  90. Default                                  : No
  91. Forced                                   : No
  92. Menu
  93. 00:00:00.000                             : en:Chapter 01
  94. 00:04:42.782                             : en:Chapter 02
  95. 00:11:51.419                             : en:Chapter 03
  96. 00:16:06.674                             : en:Chapter 04
  97. 00:22:45.614                             : en:Chapter 05
  98. 00:29:14.627                             : en:Chapter 06
  99. 00:36:26.475                             : en:Chapter 07
  100. 00:42:26.335                             : en:Chapter 08
  101. 00:47:49.658                             : en:Chapter 09
  102. 00:54:33.103                             : en:Chapter 10
  103. 01:00:29.000                             : en:Chapter 11
  104. 01:07:04.645                             : en:Chapter 12
  105. 01:15:25.395                             : en:Chapter 13
  106. 01:22:00.707                             : en:Chapter 14
  107. 01:27:29.619                             : en:Chapter 15
  108. 01:34:07.600                             : en:Chapter 16
  109. 01:39:14.990                             : en:Chapter 17
  110. 01:48:08.857                             : en:Chapter 18
复制代码




TAGS 冒险 剧情 犯罪 /

磁力链:
  • magnet:?xt=urn:btih:FED461FC13EDF91B59DF0D729F81EF5A63092F08
上传的附件:
BT9527电影天堂 1、BT9527电影天堂提供的BT文件均来源于互联网抓取,只供网友学习交流、技术提升使用。
2、我们遵守BitTorrent点对点协议原则,任何版权问题请联系原资源发布商,我们不处理任何版权纠纷,谢谢!如有争议请联系邮箱:BT9527#hotmail.com(#换成@)
3、如果您发现某页面或地址有错误,请联系站长邮箱BT9527#hotmail.com(#换成@),我们会尽快处理。您的热心是对BT9527电影天堂最大的支持。
4、本站建议去正规影院观看电影以支持电影行业发展。
最新回复 (0)

你可以在 登录 or 注册 后,对此帖发表评论!

返回
发新帖