梅格雷的亡者[中英字幕].Maigret's.Dead.Man.2016.BluRay.1080p.x265.10bit-MiniHD 2.07GB

版主小s 4月前 259



◎译  名 梅格雷的亡者 / 梅格雷的死者 / 麦格雷的亡者 / 梅格雷亡者
◎片  名 Maigret's Dead Man
◎年  代 2016
◎产  地 英国
◎类  别 剧情 / 悬疑 / 犯罪
◎语  言 英语
◎上映日期 2016-12-25(英国)
◎IMDb链接 https://www.imdb.com/title/tt5017060/
◎豆瓣评分 7.6/10 (6551人评价)
◎豆瓣链接 https://movie.douban.com/subject/26706957/
◎片  长 88分钟
◎导  演 荣·伊斯特 Jon East (id:1303624)
◎编  剧 斯图尔特·哈考特 Stewart Harcourt (id:1321774)
       乔治·西默农 Georges Simenon (id:1008087)
◎演  员 罗温·艾金森 Rowan Atkinson (id:1040996)
       安娜玛丽亚·玛琳卡 Anamaria Marinca (id:1000379)
       约翰·莱特 John Light (id:1027916)
       马克·希普 Mark Heap (id:1045125)
       露西·科乎 Lucy Cohu (id:1281006)
       艾丹·麦克阿德尔 Aidan McArdle (id:1326778)
       肖恩·丁沃 Shaun Dingwall (id:1318965)
       休·西蒙 Hugh Simon (id:1332333)
       李奥·斯塔 Leo Staar (id:1356574)
       斯图尔特·哈考特 Stewart Harcourt (id:1321774)

◎简  介
  ITV打算将Georges Simenon的Jules Maigret系列侦探小说改编成电视电影《Maigret Sets A Trap》和《Maigret’s Dead Man》,憨豆先生Rowan Atkinson将在其中扮演主人公法国侦探Jules Maigret。故事发生在上世纪五十年代的巴黎,Jules Maigret是当时有名的探长。

  1. ##### MediaInfo ######
  2. General
  3. Unique ID                                : 216266192152981572365994379221449729120 (0xA2B35A81C49E1584917E2F3CF69E6460)
  4. Complete name                            : Maigret's.Dead.Man.2016.BluRay.1080p.x265.10bit-MiniHD.mkv
  5. Format                                   : Matroska
  6. Format version                           : Version 4
  7. File size                                : 2.07 GiB
  8. Duration                                 : 1 h 28 min
  9. Overall bit rate                         : 3 355 kb/s
  10. Encoded date                             : UTC 2017-03-24 13:48:45
  11. Writing application                      : mkvmerge v9.7.1 ('Pandemonium') 64bit
  12. Writing library                          : libebml v1.3.4 + libmatroska v1.4.5
  13. Video
  14. ID                                       : 1
  15. Format                                   : HEVC
  16. Format/Info                              : High Efficiency Video Coding
  17. Format profile                           : Main 10@L4@Main
  18. Codec ID                                 : V_MPEGH/ISO/HEVC
  19. Duration                                 : 1 h 28 min
  20. Bit rate                                 : 2 648 kb/s
  21. Width                                    : 1 920 pixels
  22. Height                                   : 1 080 pixels
  23. Display aspect ratio                     : 16:9
  24. Frame rate mode                          : Constant
  25. Frame rate                               : 25.000 FPS
  26. Color space                              : YUV
  27. Chroma subsampling                       : 4:2:0
  28. Bit depth                                : 10 bits
  29. Bits/(Pixel*Frame)                       : 0.051
  30. Stream size                              : 1.63 GiB (79%)
  31. Writing library                          : x265 2.3+7-c15f8bce9f4b:[Windows][GCC 6.3.0][64 bit] 10bit
  32. Encoding settings                        : cpuid=533541173503 / frame-threads=6 / numa-pools=36 / wpp / no-pmode / no-pme / no-psnr / no-ssim / log-level=2 / input-csp=1 / input-res=1920x1080 / interlace=0 / total-frames=132596 / level-idc=0 / high-tier=1 / uhd-bd=0 / ref=5 / no-allow-non-conformance / no-repeat-headers / annexb / no-aud / no-hrd / info / hash=0 / no-temporal-layers / no-open-gop / min-keyint=1 / keyint=360 / bframes=8 / b-adapt=2 / b-pyramid / bframe-bias=0 / rc-lookahead=60 / lookahead-slices=4 / NTMzNTQ=uuDQuD2mJt9fsCf / scenecut=40 / no-intra-refresh / ctu=32 / min-cu-size=8 / rect / no-amp / max-tu-size=16 / tu-inter-depth=2 / tu-intra-depth=2 / limit-tu=0 / rdoq-level=2 / dynamic-rd=0.00 / signhide / no-tskip / nr-intra=0 / nr-inter=0 / no-constrained-intra / no-strong-intra-smoothing / max-merge=3 / limit-refs=2 / limit-modes / me=3 / subme=5 / merange=25 / temporal-mvp / weightp / weightb / no-analyze-src-pics / deblock=-1:-1 / no-sao / no-sao-non-deblock / rd=4 / no-early-skip / rskip / no-fast-intra / no-tskip-fast / no-cu-lossless / b-intra / rdpenalty=1 / psy-rd=0.00 / psy-rdoq=5.00 / no-rd-refine / analysis-mode=0 / no-lossless / cbqpoffs=-2 / crqpoffs=-2 / rc=crf / crf=19.0 / qcomp=0.65 / qpstep=4 / stats-write=0 / stats-read=0 / ipratio=1.40 / pbratio=1.30 / aq-mode=3 / aq-strength=0.80 / cutree / zone-count=0 / no-strict-cbr / qg-size=16 / no-rc-grain / qpmax=69 / qpmin=0 / sar=0 / overscan=0 / videoformat=5 / range=0 / colorprim=1 / transfer=2 / colormatrix=2 / chromaloc=0 / display-window=0 / max-cll=0,0 / min-luma=0 / max-luma=1023 / log2-max-poc-lsb=8 / vui-timing-info / vui-hrd-info / slices=1 / opt-qp-pps / opt-ref-list-length-pps / no-multi-pass-opt-rps / scenecut-bias=0.05 / no-opt-cu-delta-qp / no-aq-motion / no-hdr / no-hdr-opt / Capture-colorprim=3
  33. Default                                  : Yes
  34. Forced                                   : No
  35. Color range                              : Limited
  36. Color primaries                          : BT.709
  37. Audio
  38. ID                                       : 2
  39. Format                                   : AC-3
  40. Format/Info                              : Audio Coding 3
  41. Commercial name                          : Dolby Digital
  42. Codec ID                                 : A_AC3
  43. Duration                                 : 1 h 28 min
  44. Bit rate mode                            : Constant
  45. Bit rate                                 : 640 kb/s
  46. Channel(s)                               : 6 channels
  47. Channel layout                           : L R C LFE Ls Rs
  48. Sampling rate                            : 48.0 kHz
  49. Frame rate                               : 31.250 FPS (1536 SPF)
  50. Compression mode                         : Lossy
  51. Stream size                              : 405 MiB (19%)
  52. Language                                 : English
  53. Service kind                             : Complete Main
  54. Default                                  : Yes
  55. Forced                                   : No
  56. Text #1
  57. ID                                       : 3
  58. Format                                   : PGS
  59. Muxing mode                              : zlib
  60. Codec ID                                 : S_HDMV/PGS
  61. Codec ID/Info                            : Picture based subtitle format used on BDs/HD-DVDs
  62. Language                                 : English
  63. Default                                  : Yes
  64. Forced                                   : No
  65. Text #2
  66. ID                                       : 4
  67. Format                                   : PGS
  68. Muxing mode                              : zlib
  69. Codec ID                                 : S_HDMV/PGS
  70. Codec ID/Info                            : Picture based subtitle format used on BDs/HD-DVDs
  71. Language                                 : Chinese
  72. Default                                  : No
  73. Forced                                   : No
  74. Text #3
  75. ID                                       : 5
  76. Format                                   : PGS
  77. Muxing mode                              : zlib
  78. Codec ID                                 : S_HDMV/PGS
  79. Codec ID/Info                            : Picture based subtitle format used on BDs/HD-DVDs
  80. Language                                 : Chinese
  81. Default                                  : No
  82. Forced                                   : No
  83. Menu
  84. 00:00:00.000                             : en:Chapter 01
  85. 00:10:58.720                             : en:Chapter 02
  86. 00:22:08.560                             : en:Chapter 03
  87. 00:32:48.200                             : en:Chapter 04
  88. 00:43:45.520                             : en:Chapter 05
  89. 00:55:52.800                             : en:Chapter 06
  90. 01:07:24.160                             : en:Chapter 07
  91. 01:16:53.400                             : en:Chapter 08
复制代码




TAGS 剧情 悬疑 犯罪 /

磁力链:
  • magnet:?xt=urn:btih:213859C5725777D027E2965C03D9520669CB0A52
上传的附件:
BT9527电影天堂 1、BT9527电影天堂提供的BT文件均来源于互联网抓取,只供网友学习交流、技术提升使用。
2、我们遵守BitTorrent点对点协议原则,任何版权问题请联系原资源发布商,我们不处理任何版权纠纷,谢谢!如有争议请联系邮箱:BT9527#hotmail.com(#换成@)
3、如果您发现某页面或地址有错误,请联系站长邮箱BT9527#hotmail.com(#换成@),我们会尽快处理。您的热心是对BT9527电影天堂最大的支持。
4、本站建议去正规影院观看电影以支持电影行业发展。
最新回复 (0)

你可以在 登录 or 注册 后,对此帖发表评论!

返回
发新帖