桂河大桥[国英多音轨/中英字幕].The.Bridge.on.the.River.Kwai.1957.BluRay.1080p.x265.10bit.3Audio-MiniHD 9.66GB

版主小s 1月前 121



◎译  名 桂河大桥 / 桂河桥
◎片  名 The Bridge on the River Kwai
◎年  代 1957
◎产  地 英国 / 美国
◎类  别 剧情 / 历史 / 战争
◎语  言 英语 / 日语 / 泰语
◎上映日期 1957-10-02(英国)
◎IMDb链接 https://www.imdb.com/title/tt0050212/
◎豆瓣评分 8.4/10 (23007人评价)
◎豆瓣链接 https://movie.douban.com/subject/1294958/
◎片  长 161分钟
◎导  演 大卫·里恩 David Lean (id:1002783)
◎编  剧 迈克尔·威尔逊 Michael Wilson (id:1160972)
       卡尔·福尔曼 Carl Foreman (id:1023370)
◎演  员 威廉·霍尔登 William Holden (id:1002737)
       亚历克·吉尼斯 Alec Guinness (id:1000109)
       杰克·霍金斯 Jack Hawkins (id:1049902)
       早川雪洲 Sessue Hayakawa (id:1019196)
       詹姆斯·唐纳德 James Donald (id:1089546)
       杰弗里·霍尔内 Geoffrey Horne (id:1100732)
       特德·斯特吉斯 Ted Sturgis (id:1298585)
       Gus Agosti Gus Agosti (id:1276854)

◎简  介
  二战期间,日军占领了缅甸边境的一个战俘营。出于战略需要,日军将在缅甸与泰国交界修建一条大桥,同时希望战俘营里战俘出力,但英军战俘代表尼科森上校(亚利克·基尼斯 Alec Guinness 饰)认为这违反日内瓦公约拒不执行。于是尼科森等人被关了禁闭,但是没了尼科森的带领, 战俘们表现消极,而且因日本设计方面的不足,建桥工作陷入了停滞。日军无奈只好放出了尼科森等人,获释后尼科森感到在破坏一切的战争里何不做点建设,于是开始投入到建桥的工作。与此同时,逃出去的美军俘虏希尔兹(威廉?霍尔登 William Holden 饰)接受盟军一个特别任务,就是大桥建成之日将它炸毁。

◎获奖情况 (共12项)
  第30届奥斯卡金像奖 (1958)
  最佳影片
   └──萨姆·斯皮格尔 (id:1041774)
  最佳导演
   └──大卫·里恩 (id:1002783)
  最佳男主角
   └──亚历克·吉尼斯 (id:1000109)
  最佳男配角(提名)
   └──早川雪洲 (id:1019196)
  最佳改编剧本
  最佳摄影
   └──杰克·希尔德亚德 (id:1033673)
  最佳剪辑
   └──彼得·泰勒 (id:1153387)
  最佳配乐
   └──马尔科姆·阿诺德 (id:1028893)

  第15届金球奖 (1958)
  电影类 最佳剧情片
  电影类 最佳导演
   └──大卫·里恩 (id:1002783)
  电影类 剧情片最佳男主角
   └──亚历克·吉尼斯 (id:1000109)
  电影类 最佳男配角(提名)
   └──早川雪洲 (id:1019196)

  1. ##### MediaInfo ######
  2. General
  3. Unique ID                                : 218650870114686965406198055206922586222 (0xA47EA035376F41ACB016D2F33641886E)
  4. Complete name                            : The.Bridge.on.the.River.Kwai.1957.BluRay.1080p.x265.10bit.3Audio-MiniHD.mkv
  5. Format                                   : Matroska
  6. Format version                           : Version 4
  7. File size                                : 9.66 GiB
  8. Duration                                 : 2 h 42 min
  9. Overall bit rate                         : 8 535 kb/s
  10. Encoded date                             : UTC 2017-07-31 01:41:26
  11. Writing application                      : mkvmerge v11.0.0 ('Alive') 64bit
  12. Writing library                          : libebml v1.3.4 + libmatroska v1.4.5
  13. Video
  14. ID                                       : 1
  15. Format                                   : HEVC
  16. Format/Info                              : High Efficiency Video Coding
  17. Codec ID                                 : V_MPEGH/ISO/HEVC
  18. Duration                                 : 2 h 42 min
  19. Bit rate                                 : 7 341 kb/s
  20. Width                                    : 1 920 pixels
  21. Height                                   : 752 pixels
  22. Display aspect ratio                     : 2.553
  23. Frame rate mode                          : Constant
  24. Frame rate                               : 23.976 (24000/1001/53354) FPS
  25. Bits/(Pixel*Frame)                       : 0.212
  26. Stream size                              : 8.31 GiB (86%)
  27. Default                                  : Yes
  28. Forced                                   : No
  29. Audio #1
  30. ID                                       : 2
  31. Format                                   : AC-3
  32. Format/Info                              : Audio Coding 3
  33. Commercial name                          : Dolby Digital
  34. Codec ID                                 : A_AC3
  35. Duration                                 : 2 h 42 min
  36. Bit rate mode                            : Constant
  37. Bit rate                                 : 640 kb/s
  38. Channel(s)                               : 6 channels
  39. Channel layout                           : L R C LFE Ls Rs
  40. Sampling rate                            : 48.0 kHz
  41. Frame rate                               : 31.250 FPS (1536 SPF)
  42. Compression mode                         : Lossy
  43. Stream size                              : 742 MiB (7%)
  44. Language                                 : English
  45. Service kind                             : Complete Main
  46. Default                                  : Yes
  47. Forced                                   : No
  48. Audio #2
  49. ID                                       : 3
  50. Format                                   : AC-3
  51. Format/Info                              : Audio Coding 3
  52. Commercial name                          : Dolby Digital
  53. Codec ID                                 : A_AC3
  54. Duration                                 : 2 h 42 min
  55. Bit rate mode                            : Constant
  56. Bit rate                                 : 192 kb/s
  57. Channel(s)                               : 2 channels
  58. Channel layout                           : L R
  59. Sampling rate                            : 48.0 kHz
  60. Frame rate                               : 31.250 FPS (1536 SPF)
  61. Compression mode                         : Lossy
  62. Stream size                              : 223 MiB (2%)
  63. Language                                 : Chinese
  64. Service kind                             : Complete Main
  65. Default                                  : No
  66. Forced                                   : No
  67. Audio #3
  68. ID                                       : 4
  69. Format                                   : AC-3
  70. Format/Info                              : Audio Coding 3
  71. Commercial name                          : Dolby Digital
  72. Codec ID                                 : A_AC3
  73. Duration                                 : 2 h 42 min
  74. Bit rate mode                            : Constant
  75. Bit rate                                 : 192 kb/s
  76. Channel(s)                               : 2 channels
  77. Channel layout                           : L R
  78. Sampling rate                            : 48.0 kHz
  79. Frame rate                               : 31.250 FPS (1536 SPF)
  80. Compression mode                         : Lossy
  81. Stream size                              : 223 MiB (2%)
  82. Language                                 : Chinese
  83. Service kind                             : Complete Main
  84. Default                                  : No
  85. Forced                                   : No
  86. Text #1
  87. ID                                       : 5
  88. Format                                   : PGS
  89. Muxing mode                              : zlib
  90. Codec ID                                 : S_HDMV/PGS
  91. Codec ID/Info                            : Picture based subtitle format used on BDs/HD-DVDs
  92. Language                                 : English
  93. Default                                  : Yes
  94. Forced                                   : No
  95. Text #2
  96. ID                                       : 6
  97. Format                                   : PGS
  98. Muxing mode                              : zlib
  99. Codec ID                                 : S_HDMV/PGS
  100. Codec ID/Info                            : Picture based subtitle format used on BDs/HD-DVDs
  101. Language                                 : Chinese
  102. Default                                  : No
  103. Forced                                   : No
  104. Menu
  105. 00:00:00.000                             : en:Chapter 01
  106. 00:10:54.737                             : en:Chapter 02
  107. 00:21:00.801                             : en:Chapter 03
  108. 00:31:06.114                             : en:Chapter 04
  109. 00:38:43.237                             : en:Chapter 05
  110. 00:50:24.271                             : en:Chapter 06
  111. 01:00:10.607                             : en:Chapter 07
  112. 01:09:42.803                             : en:Chapter 08
  113. 01:20:59.271                             : en:Chapter 09
  114. 01:32:47.853                             : en:Chapter 10
  115. 01:41:14.109                             : en:Chapter 11
  116. 01:50:34.628                             : en:Chapter 12
  117. 02:03:20.267                             : en:Chapter 13
  118. 02:14:36.693                             : en:Chapter 14
  119. 02:24:37.960                             : en:Chapter 15
  120. 02:32:33.102                             : en:Chapter 16
复制代码




TAGS 剧情 历史 战争 /

磁力链:
  • magnet:?xt=urn:btih:9556FFB39F1AAF5EE4C519657F5E65A03B347132
上传的附件:
BT9527电影天堂 1、BT9527电影天堂提供的BT文件均来源于互联网抓取,只供网友学习交流、技术提升使用。
2、我们遵守BitTorrent点对点协议原则,任何版权问题请联系原资源发布商,我们不处理任何版权纠纷,谢谢!如有争议请联系邮箱:BT9527#hotmail.com(#换成@)
3、如果您发现某页面或地址有错误,请联系站长邮箱BT9527#hotmail.com(#换成@),我们会尽快处理。您的热心是对BT9527电影天堂最大的支持。
4、本站建议去正规影院观看电影以支持电影行业发展。
最新回复 (0)

你可以在 登录 or 注册 后,对此帖发表评论!

返回
发新帖