柏林苍穹下[中英字幕].Wings.of.Desire.1987.BluRay.1080p.x265.10bit-MiniHD 9.32GB

版主小s 1月前 151



◎译  名 柏林苍穹下 / 欲望之翼(台) / Wings of Desire / The Sky Above Berlin
◎片  名 Der Himmel über Berlin
◎年  代 1987
◎产  地 西德 / 法国
◎类  别 剧情 / 爱情 / 奇幻
◎语  言 德语 / 英语 / 法语 / 土耳其语 / 西班牙语 / 希伯来语
◎上映日期 1987-09-23(法国)
◎IMDb链接 https://www.imdb.com/title/tt0093191/
◎豆瓣评分 8.6/10 (37670人评价)
◎豆瓣链接 https://movie.douban.com/subject/1292504/
◎片  长 128分钟
◎导  演 维姆·文德斯 Wim Wenders (id:1054402)
◎编  剧 维姆·文德斯 Wim Wenders (id:1054402)
       彼得·汉德克 Peter Handke (id:1037348)
◎演  员 布鲁诺·冈茨 Bruno Ganz (id:1000247)
       索尔维格·多马尔坦 Solveig Dommartin (id:1045356)
       奥托·山德尔 Otto Sander (id:1147818)
       科特·博伊斯 Curt Bois (id:1065736)
       彼得·法尔克 Peter Falk (id:1049632)
       尼克·凯夫 Nick Cave (id:1049985)
       奇克·奥尔特加 Chick Ortega (id:1293645)
       维姆·文德斯 Wim Wenders (id:1054402)
       亨利·阿勒康 Henri Alekan (id:1008171)
       埃斯特·瓦尔兹 Esther Walz (id:1300375)
       Heidi Lüdi Heidi Lüdi (id:1290580)
       Monika Jacobs Monika Jacobs (id:1338723)
       克莱尔·德尼 Claire Denis (id:1045155)
       Erika Rabau Erika Rabau (id:1378908)

◎简  介
  柏林由两位天使守护着,一个是对人世疾苦冷眼旁观的卡西尔,另一个是常常感怀于人类疾苦的丹密尔(布鲁诺?甘茨 Bruno Ganz  饰)。二人穿着宽大的天使袍,在城市各处游荡,倾听人们的祈祷,默默观察人们的内心世界。马戏团玛瑞安(苏韦戈?多马丁Solveig Dommartin 饰)的心事引来了丹密尔的同情,因为马戏团经营不善,面临倒闭,玛瑞安满心烦恼。这个马戏团的天使演员令丹密尔动了凡心,他决定化作凡人,追求一段美满感情。                                    
                                本片荣获1987年第40届戛纳国际电影节最佳导演奖。

◎获奖情况 (共2项)
  第40届戛纳电影节 (1987)
  主竞赛单元 金棕榈奖(提名)
   └──维姆·文德斯 (id:1054402)
  主竞赛单元 最佳导演
   └──维姆·文德斯 (id:1054402)

  1. ##### MediaInfo ######
  2. General
  3. Unique ID                                : 201892498057341450699641147769271758192 (0x97E314AC65C4A6ABB16F950ACC462D70)
  4. Complete name                            : Wings.of.Desire.1987.BluRay.1080p.x265.10bit-MiniHD.mkv
  5. Format                                   : Matroska
  6. Format version                           : Version 4
  7. File size                                : 9.32 GiB
  8. Duration                                 : 2 h 7 min
  9. Overall bit rate                         : 10.4 Mb/s
  10. Encoded date                             : UTC 2017-09-30 03:21:01
  11. Writing application                      : mkvmerge v11.0.0 ('Alive') 64bit
  12. Writing library                          : libebml v1.3.4 + libmatroska v1.4.5
  13. Video
  14. ID                                       : 1
  15. Format                                   : HEVC
  16. Format/Info                              : High Efficiency Video Coding
  17. Codec ID                                 : V_MPEGH/ISO/HEVC
  18. Duration                                 : 2 h 7 min
  19. Bit rate                                 : 9 593 kb/s
  20. Width                                    : 1 802 pixels
  21. Height                                   : 1 080 pixels
  22. Display aspect ratio                     : 5:3
  23. Frame rate mode                          : Constant
  24. Frame rate                               : 23.976 (24000/1001/53354) FPS
  25. Bits/(Pixel*Frame)                       : 0.206
  26. Stream size                              : 8.56 GiB (92%)
  27. Default                                  : Yes
  28. Forced                                   : No
  29. Audio
  30. ID                                       : 2
  31. Format                                   : AC-3
  32. Format/Info                              : Audio Coding 3
  33. Commercial name                          : Dolby Digital
  34. Codec ID                                 : A_AC3
  35. Duration                                 : 2 h 7 min
  36. Bit rate mode                            : Constant
  37. Bit rate                                 : 640 kb/s
  38. Channel(s)                               : 6 channels
  39. Channel layout                           : L R C LFE Ls Rs
  40. Sampling rate                            : 48.0 kHz
  41. Frame rate                               : 31.250 FPS (1536 SPF)
  42. Compression mode                         : Lossy
  43. Stream size                              : 585 MiB (6%)
  44. Language                                 : German
  45. Service kind                             : Complete Main
  46. Default                                  : Yes
  47. Forced                                   : No
  48. Text #1
  49. ID                                       : 3
  50. Format                                   : PGS
  51. Muxing mode                              : zlib
  52. Codec ID                                 : S_HDMV/PGS
  53. Codec ID/Info                            : Picture based subtitle format used on BDs/HD-DVDs
  54. Language                                 : English
  55. Default                                  : Yes
  56. Forced                                   : No
  57. Text #2
  58. ID                                       : 4
  59. Format                                   : PGS
  60. Muxing mode                              : zlib
  61. Codec ID                                 : S_HDMV/PGS
  62. Codec ID/Info                            : Picture based subtitle format used on BDs/HD-DVDs
  63. Language                                 : Chinese
  64. Default                                  : No
  65. Forced                                   : No
  66. Text #3
  67. ID                                       : 5
  68. Format                                   : PGS
  69. Muxing mode                              : zlib
  70. Codec ID                                 : S_HDMV/PGS
  71. Codec ID/Info                            : Picture based subtitle format used on BDs/HD-DVDs
  72. Language                                 : Chinese
  73. Default                                  : No
  74. Forced                                   : No
  75. Text #4
  76. ID                                       : 6
  77. Format                                   : PGS
  78. Muxing mode                              : zlib
  79. Codec ID                                 : S_HDMV/PGS
  80. Codec ID/Info                            : Picture based subtitle format used on BDs/HD-DVDs
  81. Language                                 : Chinese
  82. Default                                  : No
  83. Forced                                   : No
  84. Menu
  85. 00:00:00.000                             : en:Chapter 01
  86. 00:10:49.023                             : en:Chapter 02
  87. 00:16:17.101                             : en:Chapter 03
  88. 00:22:24.009                             : en:Chapter 04
  89. 00:30:56.646                             : en:Chapter 05
  90. 00:36:00.825                             : en:Chapter 06
  91. 00:43:59.511                             : en:Chapter 07
  92. 00:48:18.353                             : en:Chapter 08
  93. 00:55:57.228                             : en:Chapter 09
  94. 01:01:17.840                             : en:Chapter 10
  95. 01:06:34.740                             : en:Chapter 11
  96. 01:11:00.047                             : en:Chapter 12
  97. 01:20:28.323                             : en:Chapter 13
  98. 01:25:06.017                             : en:Chapter 14
  99. 01:29:27.653                             : en:Chapter 15
  100. 01:38:46.211                             : en:Chapter 16
  101. 01:47:30.986                             : en:Chapter 17
  102. 01:52:23.903                             : en:Chapter 18
  103. 01:55:32.467                             : en:Chapter 19
复制代码




TAGS 奇幻 剧情 爱情 /

磁力链:
  • magnet:?xt=urn:btih:066BE9E43C74B8CCD8A0ADD8DAB01B3C4B4FA2A9
上传的附件:
BT9527电影天堂 1、BT9527电影天堂提供的BT文件均来源于互联网抓取,只供网友学习交流、技术提升使用。
2、我们遵守BitTorrent点对点协议原则,任何版权问题请联系原资源发布商,我们不处理任何版权纠纷,谢谢!如有争议请联系邮箱:BT9527#hotmail.com(#换成@)
3、如果您发现某页面或地址有错误,请联系站长邮箱BT9527#hotmail.com(#换成@),我们会尽快处理。您的热心是对BT9527电影天堂最大的支持。
4、本站建议去正规影院观看电影以支持电影行业发展。
最新回复 (0)

你可以在 登录 or 注册 后,对此帖发表评论!

返回
发新帖