冬荫功[共2部合集][简繁字幕].The.Protector.1-2.2005-2013.BluRay.1080p.3Audio.DTS-HD.MA.5.1.x265.10bit-ALT 19.53GB

版主小s 4月前 282




◎译  名 冬荫功2:拳霸天下 / 拳霸:冬荫功2 / 拳霸4:勇者无惧 / Tom Yum Goong 2 / The Protector 2 / ????????? 2 3D
◎片  名 ????????? 2
◎年  代 2013
◎产  地 泰国
◎类  别 动作 / 犯罪
◎语  言 泰语 / 英语
◎上映日期 2014-08-15(中国大陆) / 2013-10-23(泰国)
◎IMDb链接 https://www.imdb.com/title/tt1925518/
◎豆瓣评分 5.8/10 (8106人评价)
◎豆瓣链接 https://movie.douban.com/subject/6529847/
◎片  长 99分钟(中国大陆)
◎导  演 普拉奇亚·平克尧 Prachya Pinkaew (id:1050206)
◎编  剧 艾卡斯特·泰叻他那 Eakasit Thairatana (id:1338534)
◎演  员 托尼·贾 Tony Jaa (id:1004643)
       罗伯特·菲茨杰拉德·迪格斯 RZA (id:1009393)
       派特察泰·王卡姆劳 Petchtai Wongkamlao (id:1302193)
       杰佳·亚宁 JeeJa Yanin (id:1000367)
       马雷塞·克伦普 Marrese Crump (id:1338529)
       芮塔·彭安 Rhatha Phongam (id:1328945)
       Kazu Patrick Tang Kazu Patrick Tang (id:1340588)
       David Ismalone David Ismalone (id:1340589)
       Theerada Kittisiriprasert Theerada Kittisiriprasert (id:1340590)
       邦松·纳卡普 Boonsong Nakphoo (id:1340591)
       Sophon Phoonsawat Sophon Phoonsawat (id:1340592)
       Anton Kalinitchenko Anton Kalinitchenko (id:1340593)
       Vince Makiling Vince Makiling (id:1338530)
       Ujal Thapa Ujal Thapa (id:1338531)
       Edgar Vargas Edgar Vargas (id:1338532)
       艾迪·鲁伊斯 Eddie Ruiz (id:1338533)
       贾德·埃尔·贝尔尼 Jawed El Berni (id:1340594)
       Patipol Sochada Patipol Sochada (id:1340586)
       Solatorn Lungluang Solatorn Lungluang (id:1340587)

◎简  介
  坎(托尼·贾 Tony Jaa 饰)是一位武艺高强的拳师,精通碎象拳。他厌倦了尔虞我诈的江湖,和心爱的大象一起归隐田园,过着风平浪静的生活。然而,某日,黑社会出高价想要买走坎的大象,坎当然不会同意,谁知道第二天,大象便神秘失踪,这定和黑社会脱不了干系。                                    
                                与此同时,黑帮大 佬被人谋杀,而种种的迹象和线索均指向坎,一时间,坎成为了众矢之的,只能再度踏上逃亡的旅途。一路上追击他的,除了警方和黑帮分子,还有象园老板的一双侄女,除此之外,坎还必须争分夺秒,寻回心爱的大象。落入如此凶险的境地,坎能够获得最终的胜利吗?

◎获奖情况 (共2项)
  第23届泰国电影金天鹅奖 (2014)
  最佳音效(提名)
  最佳视觉效果




  1. 合集文件列表:

  2. 1.The.Protector.2.2013.BluRay.1080p.DTS-HD.MA.5.1.x265.10bit-ALT.mkv 8.14GB

  3. 2.The.Protector.2005.BluRay.1080p.3Audio.AC3.x265.10bit-ALT.mkv 11.39GB

复制代码





  1. ##### MediaInfo ######
  2. General
  3. Unique ID                                : 134249748626517264198084664677919474640 (0x64FF8FA3A2A4894F14C0B576F5C1C3D0)
  4. Complete name                            : The.Protector.2.2013.BluRay.1080p.DTS-HD.MA.5.1.x265.10bit-ALT.mkv
  5. Format                                   : Matroska
  6. Format version                           : Version 4
  7. File size                                : 8.14 GiB
  8. Duration                                 : 1 h 44 min
  9. Overall bit rate mode                    : Variable
  10. Overall bit rate                         : 11.1 Mb/s
  11. Encoded date                             : UTC 2020-07-25 16:32:14
  12. Writing application                      : mkvmerge v48.0.0 ('Fortress Around Your Heart') 64-bit
  13. Writing library                          : libebml v1.4.0 + libmatroska v1.6.0
  14. Video
  15. ID                                       : 1
  16. Format                                   : HEVC
  17. Format/Info                              : High Efficiency Video Coding
  18. Format profile                           : Main 10@L5.1@High
  19. Codec ID                                 : V_MPEGH/ISO/HEVC
  20. Duration                                 : 1 h 44 min
  21. Bit rate                                 : 8 541 kb/s
  22. Width                                    : 1 920 pixels
  23. Height                                   : 816 pixels
  24. Display aspect ratio                     : 2.35:1
  25. Frame rate mode                          : Constant
  26. Frame rate                               : 23.976 (24000/1001/53354) FPS
  27. Color space                              : YUV
  28. Chroma subsampling                       : 4:2:0
  29. Bit depth                                : 10 bits
  30. Bits/(Pixel*Frame)                       : 0.227
  31. Stream size                              : 6.25 GiB (77%)
  32. Title                                    : HEVC, x265Main10@L5.1@High, 24/1.001 fps @ 8540 kbps
  33. Writing library                          : x265 3.3+1-g396395b2b:[Windows][GCC 9.2.0][64 bit] 10bit
  34. Encoding settings                        : cpuid=533541111039 / frame-threads=5 / numa-pools=44,44 / wpp / pmode / pme / no-psnr / no-ssim / log-level=2 / input-csp=1 / input-res=1920x816 / interlace=0 / total-frames=150648 / level-idc=51 / high-tier=1 / uhd-bd=0 / ref=5 / no-allow-non-conformance / no-repeat-headers / annexb / no-aud / no-hrd / info / hash=0 / no-temporal-layers / open-gop / min-keyint=24 / keyint=240 / gop-lookahead=0 / bframes=6 / b-adapt=2 / b-pyramid / bframe-bias=0 / rc-lookahead=40 / lookahead-slices=0 / NTMzNTQ=uuDQuD2mJt9fsCf / scenecut=40 / hist-scenecut=0 / radl=0 / no-splice / no-intra-refresh / ctu=32 / min-cu-size=8 / no-rect / no-amp / max-tu-size=32 / tu-inter-depth=3 / tu-intra-depth=3 / limit-tu=4 / rdoq-level=2 / dynamic-rd=0.00 / no-ssim-rd / signhide / no-tskip / nr-intra=0 / nr-inter=0 / no-constrained-intra / no-strong-intra-smoothing / max-merge=4 / limit-refs=1 / limit-modes / me=3 / subme=4 / merange=25 / temporal-mvp / no-frame-dup / no-hme / weightp / weightb / no-analyze-src-pics / deblock=-3:-3 / no-sao / no-sao-non-deblock / rd=6 / selective-sao=0 / no-early-skip / rskip / no-fast-intra / no-tskip-fast / no-cu-lossless / b-intra / no-splitrd-skip / rdpenalty=0 / psy-rd=2.00 / psy-rdoq=1.00 / no-rd-refine / no-lossless / cbqpoffs=0 / crqpoffs=0 / rc=crf / crf=17.0 / qcomp=0.65 / qpstep=4 / stats-write=0 / stats-read=0 / vbv-maxrate=80000 / vbv-bufsize=80000 / vbv-init=0.9 / crf-max=0.0 / crf-min=0.0 / ipratio=1.40 / pbratio=1.30 / aq-mode=2 / aq-strength=0.85 / cutree / zone-count=0 / no-strict-cbr / qg-size=32 / no-rc-grain / qpmax=69 / qpmin=0 / no-const-vbv / sar=1 / overscan=0 / videoformat=5 / range=0 / colorprim=1 / transfer=1 / colormatrix=1 / chromaloc=0 / display-window=0 / cll=0,0 / min-luma=0 / max-luma=1023 / log2-max-poc-lsb=8 / vui-timing-info / vui-hrd-info / slices=1 / no-opt-qp-pps / no-opt-ref-list-length-pps / no-multi-pass-opt-rps / scenecut-bias=0.05 / hist-threshold=0.01 / no-opt-cu-delta-qp / no-aq-motion / no-hdr10 / no-hdr10-opt / no-dhdr10-opt / no-idr-recovery-sei / analysis-reuse-level=0 / analysis-save-reuse-level=0 / analysis-load-reuse-level=0 / scale-factor=0 / refine-intra=0 / refine-inter=0 / refine-mv=1 / refine-ctu-distortion=0 / no-limit-sao / ctu-info=0 / no-lowpass-dct / refine-analysis-type=0 / copy-pic=1 / max-ausize-factor=1.0 / no-dynamic-refine / no-single-sei / no-hevc-aq / no-svt / no-field / qp-adaptation-range=1.00 / no-scenecut-aware-qpconformance-window-offsets / right=0 / bottom=0 / NTMzNTQ=
  35. Language                                 : English
  36. Default                                  : Yes
  37. Forced                                   : No
  38. Color range                              : Limited
  39. Color primaries                          : BT.709
  40. Transfer characteristics                 : BT.709
  41. Matrix coefficients                      : BT.709
  42. Audio
  43. ID                                       : 2
  44. Format                                   : DTS XLL
  45. Format/Info                              : Digital Theater Systems
  46. Commercial name                          : DTS-HD Master Audio
  47. Codec ID                                 : A_DTS
  48. Duration                                 : 1 h 44 min
  49. Bit rate mode                            : Variable
  50. Bit rate                                 : 2 566 kb/s
  51. Channel(s)                               : 6 channels
  52. Channel layout                           : C L R Ls Rs LFE
  53. Sampling rate                            : 48.0 kHz
  54. Frame rate                               : 93.750 FPS (512 SPF)
  55. Bit depth                                : 16 bits
  56. Compression mode                         : Lossless
  57. Stream size                              : 1.88 GiB (23%)
  58. Title                                    : Thai DTS-HD Master Audio 5.1 @ 2502 kbps
  59. Language                                 : Thai
  60. Default                                  : Yes
  61. Forced                                   : No
  62. Text #1
  63. ID                                       : 3
  64. Format                                   : PGS
  65. Codec ID                                 : S_HDMV/PGS
  66. Codec ID/Info                            : Picture based subtitle format used on BDs/HD-DVDs
  67. Duration                                 : 1 h 37 min
  68. Bit rate                                 : 7 651 b/s
  69. Count of elements                        : 864
  70. Stream size                              : 5.34 MiB (0%)
  71. Title                                    : Chs/SUP  简体
  72. Language                                 : Chinese
  73. Default                                  : Yes
  74. Forced                                   : No
  75. Text #2
  76. ID                                       : 4
  77. Format                                   : PGS
  78. Codec ID                                 : S_HDMV/PGS
  79. Codec ID/Info                            : Picture based subtitle format used on BDs/HD-DVDs
  80. Duration                                 : 1 h 37 min
  81. Bit rate                                 : 7 810 b/s
  82. Count of elements                        : 864
  83. Stream size                              : 5.45 MiB (0%)
  84. Title                                    : Cht/SUP  繁体
  85. Language                                 : Chinese
  86. Default                                  : No
  87. Forced                                   : No
  88. Menu
  89. 00:00:00.000                             : en:第 01 章
  90. 00:09:22.937                             : en:第 02 章
  91. 00:19:15.488                             : en:第 03 章
  92. 00:28:42.971                             : en:第 04 章
  93. 00:36:17.759                             : en:第 05 章
  94. 00:45:52.249                             : en:第 06 章
  95. 00:54:59.505                             : en:第 07 章
  96. 01:02:29.162                             : en:第 08 章
  97. 01:10:47.034                             : en:第 09 章
  98. 01:20:08.721                             : en:第 10 章
  99. 01:29:43.920                             : en:第 11 章
  100. 01:39:40.725                             : en:第 12 章
复制代码




TAGS 动作 犯罪 /

磁力链:
  • magnet:?xt=urn:btih:A568AC49F908BF3B09A88F07BD7D183D3472A5C1
上传的附件:
BT9527电影天堂 1、BT9527电影天堂提供的BT文件均来源于互联网抓取,只供网友学习交流、技术提升使用。
2、我们遵守BitTorrent点对点协议原则,任何版权问题请联系原资源发布商,我们不处理任何版权纠纷,谢谢!如有争议请联系邮箱:BT9527#hotmail.com(#换成@)
3、如果您发现某页面或地址有错误,请联系站长邮箱BT9527#hotmail.com(#换成@),我们会尽快处理。您的热心是对BT9527电影天堂最大的支持。
4、本站建议去正规影院观看电影以支持电影行业发展。
最新回复 (0)

你可以在 登录 or 注册 后,对此帖发表评论!

返回
发新帖