伸冤人[共2部合集][简繁英字幕].The.Equalizer.2014-2018.UHD.BluRay.2160p.TrueHD.Atmos.7.1.x265.10bit.HDR-ALT 35.90GB

版主小s 1月前 111

◎译 名 伸冤人2 / 制裁特攻 / 私刑教育2(台) / 叛谍裁判2(港)

◎片 名 The Equalizer 2

◎年 代 2018

◎产 地 美国

◎类 别 动作 / 惊悚 / 犯罪

◎语 言 英语 / 法语 / 土耳其语 / 希伯来语

◎上映日期 2018-07-20(美国)

◎IMDb链接 https://www.imdb.com/title/tt3766354/

◎豆瓣评分 7.2/10 (47056人评价)

◎豆瓣链接 https://movie.douban.com/subject/26356631/

◎片 长 121分钟

◎导 演 安东尼·福奎阿 Antoine Fuqua (id:1013907)

◎编 剧 理查德·温克 Richard Wenk (id:1300710)

迈克尔·斯隆 Michael Sloan (id:1031791)

理查德·林德海姆 Richard Lindheim (id:1397801)

◎演 员 丹泽尔·华盛顿 Denzel Washington (id:1054431)

佩德罗·帕斯卡 Pedro Pascal (id:1329628)

艾什顿·桑德斯 Ashton Sanders (id:1367169)

奥森·比恩 Orson Bean (id:1009465)

比尔·普尔曼 Bill Pullman (id:1036384)

梅丽莎·里奥 Melissa Leo (id:1049558)

乔纳森·斯卡弗 Jonathan Scarfe (id:1036744)

沙基纳·贾弗里 Sakina Jaffrey (id:1104745)

卡罗琳·戴 Caroline Day (id:1391751)

特德·阿尔奇迪 Ted Arcidi (id:1058623)

杰伊·赫农 Jay Hieron (id:1371426)

马克西米利安·麦克纳马拉 Maximillian McNamara (id:1388408)

安德烈·阿罗维斯基 Andrei Arlovski (id:1005027)

列尼斯·德洛桑托斯 Leonys Delossantos (id:1392704)

艾伦·弗朗西斯 Alan Francis (id:1090264)

金伯利·豪威 Kimberly Howe (id:1359658)

奥罗拉·卡琳 Aurora Karine (id:1393136)

米格尔·纳西门托 Miguel Nascimento (id:1413065)

加布里埃尔·洛莱斯 Gabrielle Lorthe (id:1413068)

曼尼·法莫拉雷 Manny Famolare (id:1446171)

玛塞拉·贾拉米洛 Marcela Jaramillo (id:1446173)

博·克利里 Bo Cleary (id:1387223)

布鲁斯·切斯特 Bruce Chester (id:1270867)

保罗·布朗克 Paul Bronk (id:1078872)

利亚姆·麦克尼尔 Liam McNeill (id:1353102)

阿比盖尔·马洛 Abigail Marlowe (id:1394403)

亚当·卡斯特 Adam Karst (id:1247215)

杰森·布鲁门塔尔 Jason Blumenthal (id:1448830)

安东尼·福奎阿 Antoine Fuqua (id:1013907)

丹泽尔·华盛顿 Denzel Washington (id:1054431)

哈里·格雷格森-威廉姆斯 Harry Gregson-Williams (id:1056131)

柯克·A·詹金斯 Kirk A. Jenkins (id:1456658)

◎简 介

麦考尔(丹泽尔·华盛顿 Denzel Washington 饰)一直以来都过着隐姓埋名离群索居的生活,所有人都以为他已经死了,只有苏珊(梅丽莎·里奥 Melissa Leo 饰)还和他保持着联系。一天,苏珊接到任务,要前往布鲁塞尔调查一位CIA特工自杀的案件,之后就失去了联系,麦考尔凭借这本能察觉到,苏珊已经死了。

为了调查苏珊死亡的真相,麦考尔不惜重出江湖,他和曾经的搭档戴夫(佩德罗·帕斯卡 Pedro Pascal 饰)取得了联系,然后得知苏珊的死亡和他曾经的同行们有着千丝万缕的关联,如今他们都已经成为了自由职业杀手,而苏珊就是他们的目标之一。所有事件的发源处就是那起特工自杀案件。

◎获奖情况 (共1项)

第71届洛迦诺国际电影节 (2018)

Variety Piazza Grande Award(提名)

└──安东尼·福奎阿 (id:1013907)

  1. 合集文件列表:

  2. 1.The.Equalizer.2.2018.UHD.BluRay.2160p.TrueHD.Atmos.7.1.x265.10bit.HDR-ALT.mkv 14.71GB

  3. 2.The.Equalizer.2014.UHD.BluRay.2160p.TrueHD.Atmos.7.1.x265.10bit.HDR-ALT.mkv 21.19GB


复制代码

  1. ##### MediaInfo ######

  2. General

  3. Unique ID : 274483107239649538693376092151841762223 (0xCE7F86071E7FB0CFC1E99F2C484B2BAF)

  4. Complete name : The.Equalizer.2.2018.UHD.BluRay.2160p.TrueHD.Atmos.7.1.x265.10bit.HDR-ALT.mkv

  5. Format : Matroska

  6. Format version : Version 4

  7. File size : 14.7 GiB

  8. Duration : 2 h 0 min

  9. Overall bit rate mode : Variable

  10. Overall bit rate : 17.4 Mb/s

  11. Encoded date : UTC 2020-05-30 07:41:34

  12. Writing application : mkvmerge v46.0.0 ('No Deeper Escape') 64-bit

  13. Writing library : libebml v1.3.10 + libmatroska v1.5.2

  14. Video

  15. ID : 1

  16. Format : HEVC

  17. Format/Info : High Efficiency Video Coding

  18. Format profile : Main 10@L5.1@High

  19. HDR format : SMPTE ST 2086, HDR10 compatible

  20. Codec ID : V_MPEGH/ISO/HEVC

  21. Duration : 2 h 0 min

  22. Bit rate : 12.4 Mb/s

  23. Width : 3 840 pixels

  24. Height : 1 600 pixels

  25. Display aspect ratio : 2.40:1

  26. Frame rate mode : Constant

  27. Frame rate : 23.976 (24000/1001/53354) FPS

  28. Color space : YUV

  29. Chroma subsampling : 4:2:0 (Type 2)

  30. Bit depth : 10 bits

  31. Bits/(Pixel*Frame) : 0.084

  32. Stream size : 10.4 GiB (71%)

  33. Title : HEVC, x265Main10@L5.1@High, 24/1.001 fps @ 12351 kbps

  34. Writing library : x265 3.3+1-g396395b2b:[Windows][GCC 9.2.0][64 bit] 10bit

  35. Encoding settings : cpuid=533541111039 / frame-threads=4 / numa-pools=12,12 / wpp / pmode / pme / no-psnr / no-ssim / log-level=2 / input-csp=1 / input-res=3840x1600 / interlace=0 / total-frames=174000 / level-idc=51 / high-tier=1 / uhd-bd=0 / ref=4 / no-allow-non-conformance / repeat-headers / annexb / no-aud / hrd / info / hash=0 / no-temporal-layers / no-open-gop / min-keyint=24 / keyint=240 / gop-lookahead=0 / bframes=8 / b-adapt=2 / b-pyramid / bframe-bias=0 / rc-lookahead=25 / lookahead-slices=0 / NTMzNTQ=uuDQuD2mJt9fsCf / scenecut=40 / hist-scenecut=0 / radl=0 / no-splice / no-intra-refresh / ctu=64 / min-cu-size=8 / no-rect / no-amp / max-tu-size=32 / tu-inter-depth=3 / tu-intra-depth=3 / limit-tu=4 / rdoq-level=2 / dynamic-rd=0.00 / no-ssim-rd / signhide / no-tskip / nr-intra=0 / nr-inter=0 / no-constrained-intra / no-strong-intra-smoothing / max-merge=4 / limit-refs=1 / limit-modes / me=3 / subme=4 / merange=25 / temporal-mvp / no-frame-dup / no-hme / weightp / weightb / no-analyze-src-pics / deblock=-3:-3 / no-sao / no-sao-non-deblock / rd=6 / selective-sao=0 / no-early-skip / rskip / no-fast-intra / no-tskip-fast / no-cu-lossless / b-intra / no-splitrd-skip / rdpenalty=0 / psy-rd=2.00 / psy-rdoq=1.00 / no-rd-refine / no-lossless / cbqpoffs=0 / crqpoffs=0 / rc=crf / crf=18.5 / qcomp=0.65 / qpstep=4 / stats-write=0 / stats-read=0 / vbv-maxrate=160000 / vbv-bufsize=160000 / vbv-init=0.9 / crf-max=0.0 / crf-min=0.0 / ipratio=1.30 / pbratio=1.20 / aq-mode=3 / aq-strength=0.85 / cutree / zone-count=0 / no-strict-cbr / qg-size=32 / no-rc-grain / qpmax=69 / qpmin=0 / no-const-vbv / sar=1 / overscan=0 / videoformat=5 / range=0 / colorprim=9 / transfer=16 / colormatrix=9 / chromaloc=1 / chromaloc-top=2 / chromaloc-bottom=2 / display-window=0 / master-display=G(13250,34500)B(7500,3000)R(34000,16000)WP(15635,16450)L(40000000,50) / cll=4000,909 / min-luma=0 / max-luma=1023 / log2-max-poc-lsb=8 / vui-timing-info / vui-hrd-info / slices=1 / no-opt-qp-pps / no-opt-ref-list-length-pps / no-multi-pass-opt-rps / scenecut-bias=0.05 / hist-threshold=0.01 / no-opt-cu-delta-qp / no-aq-motion / hdr10 / hdr10-opt / no-dhdr10-opt / no-idr-recovery-sei / analysis-reuse-level=0 / analysis-save-reuse-level=0 / analysis-load-reuse-level=0 / scale-factor=0 / refine-intra=0 / refine-inter=0 / refine-mv=1 / refine-ctu-distortion=0 / no-limit-sao / ctu-info=0 / no-lowpass-dct / refine-analysis-type=0 / copy-pic=1 / max-ausize-factor=1.0 / no-dynamic-refine / no-single-sei / no-hevc-aq / no-svt / no-field / qp-adaptation-range=1.00 / no-scenecut-aware-qpconformance-window-offsets / right=0 / bottom=0 / NTMzNTQ=

  36. Language : English

  37. Default : Yes

  38. Forced : No

  39. Color range : Limited

  40. Color primaries : BT.2020

  41. Transfer characteristics : PQ

  42. Matrix coefficients : BT.2020 non-constant

  43. Mastering display color primaries : Display P3

  44. Mastering display luminance : min: 0.0050 cd/m2, max: 4000 cd/m2

  45. Maximum Content Light Level : 4000 cd/m2

  46. Maximum Frame-Average Light Level : 909 cd/m2

  47. Audio #1

  48. ID : 2

  49. Format : MLP FBA 16-ch

  50. Format/Info : Meridian Lossless Packing FBA with 16-channel presentation

  51. Commercial name : Dolby TrueHD with Dolby Atmos

  52. Codec ID : A_TRUEHD

  53. Duration : 2 h 0 min

  54. Bit rate mode : Variable

  55. Bit rate : 4 253 kb/s

  56. Maximum bit rate : 7 884 kb/s

  57. Channel(s) : 8 channels

  58. Channel layout : L R C LFE Ls Rs Lb Rb

  59. Sampling rate : 48.0 kHz

  60. Frame rate : 1 200.000 FPS (40 SPF)

  61. Compression mode : Lossless

  62. Stream size : 3.59 GiB (24%)

  63. Title : English Dolby TrueHD 7.1 (Atmos) @ 4253 kbps

  64. Language : English

  65. Default : Yes

  66. Forced : No

  67. Number of dynamic objects : 11

  68. Bed channel count : 1 channel

  69. Bed channel configuration : LFE

  70. Audio #2

  71. ID : 3

  72. Format : AC-3

  73. Format/Info : Audio Coding 3

  74. Commercial name : Dolby Digital

  75. Codec ID : A_AC3

  76. Duration : 2 h 0 min

  77. Bit rate mode : Constant

  78. Bit rate : 640 kb/s

  79. Channel(s) : 6 channels

  80. Channel layout : L R C LFE Ls Rs

  81. Sampling rate : 48.0 kHz

  82. Frame rate : 31.250 FPS (1536 SPF)

  83. Compression mode : Lossy

  84. Stream size : 554 MiB (4%)

  85. Title : English AC3 5.1-EX @ 640 kbps

  86. Language : English

  87. Service kind : Complete Main

  88. Default : No

  89. Forced : No

  90. Text #1

  91. ID : 4

  92. Format : PGS

  93. Codec ID : S_HDMV/PGS

  94. Codec ID/Info : Picture based subtitle format used on BDs/HD-DVDs

  95. Duration : 1 h 58 min

  96. Bit rate : 27.6 kb/s

  97. Count of elements : 2612

  98. Stream size : 23.5 MiB (0%)

  99. Title : Eng/SUP SDH

  100. Language : English

  101. Default : No

  102. Forced : No

  103. Text #2

  104. ID : 5

  105. Format : PGS

  106. Codec ID : S_HDMV/PGS

  107. Codec ID/Info : Picture based subtitle format used on BDs/HD-DVDs

  108. Duration : 1 h 52 min

  109. Bit rate : 23.5 kb/s

  110. Count of elements : 2054

  111. Stream size : 18.9 MiB (0%)

  112. Title : Eng/SUP

  113. Language : English

  114. Default : No

  115. Forced : No

  116. Text #3

  117. ID : 6

  118. Format : PGS

  119. Codec ID : S_HDMV/PGS

  120. Codec ID/Info : Picture based subtitle format used on BDs/HD-DVDs

  121. Duration : 1 h 53 min

  122. Bit rate : 18.3 kb/s

  123. Count of elements : 2068

  124. Stream size : 14.9 MiB (0%)

  125. Title : Chs/SUP 原盘简体

  126. Language : Chinese

  127. Default : Yes

  128. Forced : No

  129. Text #4

  130. ID : 7

  131. Format : PGS

  132. Codec ID : S_HDMV/PGS

  133. Codec ID/Info : Picture based subtitle format used on BDs/HD-DVDs

  134. Duration : 1 h 59 min

  135. Bit rate : 18.0 kb/s

  136. Count of elements : 2048

  137. Stream size : 15.4 MiB (0%)

  138. Title : Cht/SUP 原盘繁体(HK)

  139. Language : Chinese

  140. Default : No

  141. Forced : No

  142. Text #5

  143. ID : 8

  144. Format : PGS

  145. Codec ID : S_HDMV/PGS

  146. Codec ID/Info : Picture based subtitle format used on BDs/HD-DVDs

  147. Duration : 1 h 59 min

  148. Bit rate : 16.8 kb/s

  149. Count of elements : 2050

  150. Stream size : 14.4 MiB (0%)

  151. Title : Cht/SUP 原盘繁体(TW)

  152. Language : Chinese

  153. Default : No

  154. Forced : No

  155. Menu

  156. 00:00:00.000 : en:第 01 章

  157. 00:06:50.035 : en:第 02 章

  158. 00:13:22.635 : en:第 03 章

  159. 00:16:43.461 : en:第 04 章

  160. 00:27:10.921 : en:第 05 章

  161. 00:34:05.460 : en:第 06 章

  162. 00:41:05.546 : en:第 07 章

  163. 00:47:08.617 : en:第 08 章

  164. 00:54:17.337 : en:第 09 章

  165. 01:02:17.817 : en:第 10 章

  166. 01:11:18.733 : en:第 11 章

  167. 01:18:39.131 : en:第 12 章

  168. 01:25:19.948 : en:第 13 章

  169. 01:31:40.245 : en:第 14 章

  170. 01:40:10.338 : en:第 15 章

  171. 01:52:14.728 : en:第 16 章


复制代码


TAGS 动作 惊悚 犯罪 /

磁力链:
  • magnet:?xt=urn:btih:E0D373FEC8168D94B50B965A9614BE0936FFFAAD
上传的附件:
BT9527电影天堂 1、BT9527电影天堂提供的BT文件均来源于互联网抓取,只供网友学习交流、技术提升使用。
2、我们遵守BitTorrent点对点协议原则,任何版权问题请联系原资源发布商,我们不处理任何版权纠纷,谢谢!如有争议请联系邮箱:BT9527#hotmail.com(#换成@)
3、如果您发现某页面或地址有错误,请联系站长邮箱BT9527#hotmail.com(#换成@),我们会尽快处理。您的热心是对BT9527电影天堂最大的支持。
4、本站建议去正规影院观看电影以支持电影行业发展。
最新回复 (0)

你可以在 登录 or 注册 后,对此帖发表评论!

返回
发新帖