乌鸦与麻雀[国语配音].Crow.and.Sparrow.1949.1080p.WEB-DL.H264.AAC-HDBWEB 4.56GB

版主小s 24天前 134

◎译 名 乌鸦与麻雀 / Crow and Sparrow

◎片 名 烏鴉与麻雀

◎年 代 1949

◎产 地 中国大陆

◎类 别 剧情

◎语 言 汉语普通话

◎上映日期 1949-01-11(中国大陆)

◎IMDb链接 https://www.imdb.com/title/tt0042054/

◎豆瓣评分 8.7/10 (9061人评价)

◎豆瓣链接 https://movie.douban.com/subject/1424627/

◎片 长 106分钟

◎导 演 郑君里 Junli Zheng (id:1039832)

◎编 剧 陈白尘 Baichen Chen (id:1035005)

沈浮 Fu Shen (id:1004335)

王林谷 Lingu Wang (id:1044390)

徐韬 Tao Xu (id:1047686)

赵丹 Dan Zhao (id:1011817)

郑君里 Junli Zheng (id:1039832)

◎演 员 赵丹 Dan Zhao (id:1011817)

上官云珠 Yunzhu Shangguan (id:1274623)

孙道临 Daolin Sun (id:1040344)

李天济 Tianji Li (id:1047154)

黄宗英 Zongying Huang (id:1012350)

魏鹤龄 Heling Wei (id:1016009)

吴茵 Yin Wu (id:1161002)

王蓓 Bei Wang (id:1381458)

李保罗 Baoluo Li (id:1397628)

奇梦石 Mengshi Qi (id:1316147)

张乾 Qian Zhang (id:1399690)

王露露 Lulu Wang (id:1456968)

田广才 Guangcai Tian (id:1456969)

关鹏 Peng Guan (id:1399694)

傅伯棠 Botang Fu (id:1402484)

葛梅强 Meiqiang Ge (id:1431188)

程漠 Mo Cheng (id:1398563)

邱奂 Huan Qiu (id:1398561)

张立德 Lide Zhang (id:1399693)

徐伟杰 Weijie Xu (id:1380745)

何剑飞 Jianfei He (id:1398564)

苗祝三 Zhusan Miao (id:1398558)

许兰 Lan Xu (id:1415322)

章志直 Zhizhi Zhang (id:1325256)

王岚 Lan Wang (id:1359494)

石灵 Ling Shi (id:1363585)

任宗德 Zongde Ren (id:1398565)

夏云瑚 Yunhu Xia (id:1361067)

王云阶 Yunjie Wang (id:1053850)

苗振华 Zhenhua Miao (id:1007828)

胡振华 Zhenhua Hu (id:1402156)

陆奇生 Qisheng Lu (id:1448501)

沈西林 Xilin Shen (id:1347960)

邬廷芳 Tingfang Wu (id:1402152)

傅正义 Zhengyi Fu (id:1318454)

牛葆荣 Baorong Niu (id:1398569)

丁辰 Chen Ding (id:1310080)

诸富祥 Fuxiang Zhu (id:1428541)

姚志荣 Zhirong Yao (id:1428430)

徐醒 Xing Xu (id:1457356)

曹明 Ming Cao (id:1419833)

王铁彬 Tiebin Wang (id:1398567)

祝宏纲 Honggang Zhu (id:1403452)

梁英俊 Yingjun Liang (id:1448593)

王林谷 Lingu Wang (id:1044390)

伍华 Hua Wu (id:1428553)

李烈鸿 Liehong Li (id:1402150)

丁伯和 Bohe Ding (id:1401540)

徐而前 Erqian Xu (id:1448595)

吴增荣 Zengrong Wu (id:1448594)

周教大 Jiaoda Zhou (id:1448596)

高衡 Heng Gao (id:1337415)

黄祖模 Zumo Huang (id:1323369)

◎简 介

1948年冬,上海林森路仁康里23号的二层石库门老房。该房本属于报馆校对孔有文(魏鹤龄 饰),抗战时期被汉奸侯义伯(李天济 饰)霸占,孔由房主沦为房客。抗战后,侯摇身一变,成为南京国防部科长,每周六到上海“买进卖出”。除孔之外,小商贩萧老板(赵丹 饰)一家和中正第一中学教员华洁之(孙道临 饰)一家也是这里的房客。三家房客相聚商议,却不齐心,只得各谋出路。 华到学校求房,因不愿出卖朋友而拒绝了校长(李保罗 饰)的拉拢,不久便因罢教事件牵连被捕。华妻(上官云珠 饰)四处奔走无果,无奈向侯求助,侯却趁机勾引。 孔找房未果,无处可搬。侯买通流氓(章志直 饰),连打带砸。 萧向侯借高利贷“轧金子,顶房子”,先被众人围殴,随后金价上涨,鸡飞蛋打。 三家房客走投无路,终于团结起来与恶势力抗争。

  1. ##### MediaInfo ######

  2. General

  3. Complete name : 乌鸦与麻雀.Crow.and.Sparrow.1949.1080p.WEB-DL.H264.AAC-HDBWEB.mp4

  4. Format : MPEG-4

  5. Format profile : Base Media

  6. Codec ID : isom (isom/iso2/avc1/mp41)

  7. File size : 4.56 GiB

  8. Duration : 1 h 46 min

  9. Overall bit rate mode : Variable

  10. Overall bit rate : 6 154 kb/s

  11. Writing application : OurTV Multimedia Platform

  12. Video

  13. ID : 1

  14. Format : AVC

  15. Format/Info : Advanced Video Codec

  16. Format profile : High@L4

  17. Format settings : CABAC / 3 Ref Frames

  18. Format settings, CABAC : Yes

  19. Format settings, Reference frames : 3 frames

  20. Format settings, GOP : M=4, N=50

  21. Codec ID : avc1

  22. Codec ID/Info : Advanced Video Coding

  23. Duration : 1 h 46 min

  24. Source duration : 1 h 46 min

  25. Bit rate mode : Variable

  26. Bit rate : 5 776 kb/s

  27. Maximum bit rate : 7 500 kb/s

  28. Width : 1 920 pixels

  29. Height : 1 080 pixels

  30. Display aspect ratio : 16:9

  31. Frame rate mode : Constant

  32. Frame rate : 25.000 FPS

  33. Color space : YUV

  34. Chroma subsampling : 4:2:0

  35. Bit depth : 8 bits

  36. Scan type : Progressive

  37. Bits/(Pixel*Frame) : 0.111

  38. Stream size : 4.28 GiB (94%)

  39. Source stream size : 4.46 GiB (98%)

  40. mdhd_Duration : 6360802

  41. Codec configuration box : avcC

  42. Audio

  43. ID : 2

  44. Format : AAC LC

  45. Format/Info : Advanced Audio Codec Low Complexity

  46. Codec ID : mp4a-40-2

  47. Duration : 1 h 46 min

  48. Bit rate mode : Variable

  49. Bit rate : 125 kb/s

  50. Maximum bit rate : 128 kb/s / 128 kb/s

  51. Channel(s) : 2 channels

  52. Channel layout : L R

  53. Sampling rate : 48.0 kHz

  54. Frame rate : 46.875 FPS (1024 SPF)

  55. Compression mode : Lossy

  56. Stream size : 95.1 MiB (2%)

  57. Language : Chinese

  58. Default : Yes

  59. Alternate group : 1


复制代码


TAGS 剧情

磁力链:
  • magnet:?xt=urn:btih:5F08CDB34C1AE655A7A3FDD67FBA84810FE7F948
上传的附件:
BT9527电影天堂 1、BT9527电影天堂提供的BT文件均来源于互联网抓取,只供网友学习交流、技术提升使用。
2、我们遵守BitTorrent点对点协议原则,任何版权问题请联系原资源发布商,我们不处理任何版权纠纷,谢谢!如有争议请联系邮箱:BT9527#hotmail.com(#换成@)
3、如果您发现某页面或地址有错误,请联系站长邮箱BT9527#hotmail.com(#换成@),我们会尽快处理。您的热心是对BT9527电影天堂最大的支持。
4、本站建议去正规影院观看电影以支持电影行业发展。
最新回复 (0)

你可以在 登录 or 注册 后,对此帖发表评论!

返回
发新帖