伯纳德行动[国英多音轨/简繁英字幕].The.Counterfeiters.2007.BluRay.1080p.2Audio.TrueHD.5.1.x265.10bit-ALT 12.67GB

版主小s 1月前 146

◎译 名 伯纳德行动 / 伪钞风暴(台) / 伪钞制造者 / 伪钞风云 / 伪术大师 / 造假币的人 / The Counterfeiters

◎片 名 Die F?lscher

◎年 代 2007

◎产 地 德国 / 奥地利

◎类 别 剧情 / 战争 / 犯罪

◎语 言 德语 / 俄语 / 英语 / 希伯来语

◎上映日期 2009-04-03(中国大陆) / 2007-02-10(德国)

◎IMDb链接 https://www.imdb.com/title/tt0813547/

◎豆瓣评分 7.9/10 (26150人评价)

◎豆瓣链接 https://movie.douban.com/subject/2381810/

◎片 长 98 分钟

◎导 演 斯戴芬·卢佐维茨基 Stefan Ruzowitzky (id:1014437)

◎编 剧 斯戴芬·卢佐维茨基 Stefan Ruzowitzky (id:1014437)

◎演 员 卡尔·马克维斯 Karl Markovics (id:1050288)

奥古斯特·迪赫 August Diehl (id:1014063)

大卫·史崔梭德 Devid Striesow (id:1028303)

维尔纳·德恩 Werner Daehn (id:1329750)

多洛莉丝·卓别林 Dolores Chaplin (id:1280477)

威特·史塔布纳 Veit Stübner (id:1438764)

Caroline von Senden Caroline von Senden (id:1300184)

沃德马尔·波克罗姆斯基 Waldemar Pokromski (id:1294657)

◎简 介

20世纪30年代,二次大战如火如荼。而萨利(Karl Markovics卡尔?马克维斯 饰)凭借一手高超的伪造技巧春风得意,佳肴美女信手拈来,好不自在。但是他的好日子并为持续多久,很快他便因为遭罪被逮捕,随后投入毛特豪森集中营。

时德国纳粹图谋制造大量假币,以扰乱同盟国的经济。萨利的才能得到发掘,他成了这个秘密伪钞制造小组的头目,但良心却促使他选择了另一条路……

本片根据阿道夫?博格(Adolf Burger)原著《魔鬼工厂》(The Devils Workshop),书中所述为作者亲身经历,影片荣获2008年奥斯卡最佳外语片奖和2007年德国电影金像奖最佳男配角奖(Devid Striesow)。

◎获奖情况 (共2项)

第80届奥斯卡金像奖 (2008)

最佳外语片

└──斯戴芬·卢佐维茨基 (id:1014437)

第57届柏林国际电影节 (2007)

金熊奖 最佳影片(提名)

└──斯戴芬·卢佐维茨基 (id:1014437)

  1. ##### MediaInfo ######

  2. General

  3. Unique ID : 84397902744962754370093318136001851791 (0x3F7E71DF549125A189D0D5E40F45F18F)

  4. Complete name : The.Counterfeiters.2007.BluRay.1080p.2Audio.TrueHD.5.1.x265.10bit-ALT.mkv

  5. Format : Matroska

  6. Format version : Version 4

  7. File size : 12.7 GiB

  8. Duration : 1 h 38 min

  9. Overall bit rate mode : Variable

  10. Overall bit rate : 18.3 Mb/s

  11. Encoded date : UTC 2022-06-04 08:54:00

  12. Writing application : mkvmerge v49.0.0 ('Sick Of Losing Soulmates') 64-bit

  13. Writing library : libebml v1.4.0 + libmatroska v1.6.1

  14. Video

  15. ID : 1

  16. Format : HEVC

  17. Format/Info : High Efficiency Video Coding

  18. Format profile : Main 10@L5.1@High

  19. Codec ID : V_MPEGH/ISO/HEVC

  20. Duration : 1 h 38 min

  21. Bit rate : 13.9 Mb/s

  22. Width : 1 920 pixels

  23. Height : 1 038 pixels

  24. Display aspect ratio : 1.85:1

  25. Frame rate mode : Constant

  26. Frame rate : 23.976 (24000/1001/53354) FPS

  27. Color space : YUV

  28. Chroma subsampling : 4:2:0

  29. Bit depth : 10 bits

  30. Bits/(Pixel*Frame) : 0.290

  31. Stream size : 9.59 GiB (76%)

  32. Title : HEVC, x265Main10@L5.1@High, 24/1.001 fps @ 13876 kbps

  33. Writing library : x265 3.5+36-1f2c8da77:[Windows][GCC 11.2.0][64 bit] 10bit

  34. Encoding settings : cpuid=533541049583 / frame-threads=2 / numa-pools=4 / wpp / no-pmode / no-pme / no-psnr / no-ssim / log-level=2 / input-csp=1 / input-res=1920x1038 / interlace=0 / total-frames=142296 / level-idc=51 / high-tier=1 / uhd-bd=0 / ref=5 / no-allow-non-conformance / no-repeat-headers / annexb / no-aud / no-eob / no-eos / no-hrd / info / hash=0 / no-temporal-layers / open-gop / min-keyint=24 / keyint=240 / gop-lookahead=0 / bframes=6 / b-adapt=2 / b-pyramid / bframe-bias=0 / rc-lookahead=40 / lookahead-slices=0 / NTMzNTQ=uuDQuD2mJt9fsCf / scenecut=40 / no-hist-scenecut / radl=0 / no-splice / no-intra-refresh / ctu=32 / min-cu-size=8 / no-rect / no-amp / max-tu-size=32 / tu-inter-depth=3 / tu-intra-depth=3 / limit-tu=4 / rdoq-level=2 / dynamic-rd=0.00 / no-ssim-rd / signhide / no-tskip / nr-intra=0 / nr-inter=0 / no-constrained-intra / no-strong-intra-smoothing / max-merge=4 / limit-refs=1 / limit-modes / me=3 / subme=4 / merange=25 / temporal-mvp / no-frame-dup / no-hme / weightp / weightb / no-analyze-src-pics / deblock=-3:-3 / no-sao / no-sao-non-deblock / rd=6 / selective-sao=0 / no-early-skip / rskip / no-fast-intra / no-tskip-fast / no-cu-lossless / b-intra / no-splitrd-skip / rdpenalty=0 / psy-rd=2.00 / psy-rdoq=1.00 / no-rd-refine / no-lossless / cbqpoffs=-2 / crqpoffs=-2 / rc=crf / crf=22.5 / qcomp=0.65 / qpstep=4 / stats-write=0 / stats-read=0 / vbv-maxrate=80000 / vbv-bufsize=80000 / vbv-init=0.9 / min-vbv-fullness=50.0 / max-vbv-fullness=80.0 / crf-max=0.0 / crf-min=0.0 / ipratio=1.40 / pbratio=1.30 / aq-mode=2 / aq-strength=0.85 / cutree / zone-count=0 / no-strict-cbr / qg-size=32 / no-rc-grain / qpmax=69 / qpmin=0 / no-const-vbv / sar=1 / overscan=0 / videoformat=5 / range=0 / colorprim=1 / transfer=1 / colormatrix=1 / chromaloc=0 / display-window=0 / cll=0,0 / min-luma=0 / max-luma=1023 / log2-max-poc-lsb=8 / vui-timing-info / vui-hrd-info / slices=1 / no-opt-qp-pps / no-opt-ref-list-length-pps / no-multi-pass-opt-rps / scenecut-bias=0.05 / hist-threshold=0.03 / no-opt-cu-delta-qp / no-aq-motion / no-hdr10 / no-hdr10-opt / no-dhdr10-opt / no-idr-recovery-sei / analysis-reuse-level=0 / analysis-save-reuse-level=0 / analysis-load-reuse-level=0 / scale-factor=0 / refine-intra=0 / refine-inter=0 / refine-mv=1 / refine-ctu-distortion=0 / no-limit-sao / ctu-info=0 / no-lowpass-dct / refine-analysis-type=0 / copy-pic=1 / max-ausize-factor=1.0 / no-dynamic-refine / no-single-sei / no-hevc-aq / no-svt / no-field / qp-adaptation-range=1.00 / scenecut-aware-qp=0conformance-window-offsets / right=0 / bottom=0 / NTMzNTQ= / decoder-max-rate=0 / no-vbv-live-multi-pass

  35. Language : English

  36. Default : Yes

  37. Forced : No

  38. Color range : Limited

  39. Color primaries : BT.709

  40. Transfer characteristics : BT.709

  41. Matrix coefficients : BT.709

  42. Audio #1

  43. ID : 2

  44. Format : MLP FBA

  45. Format/Info : Meridian Lossless Packing FBA

  46. Commercial name : Dolby TrueHD

  47. Codec ID : A_TRUEHD

  48. Duration : 1 h 38 min

  49. Bit rate mode : Variable

  50. Bit rate : 1 565 kb/s

  51. Maximum bit rate : 3 267 kb/s

  52. Channel(s) : 6 channels

  53. Channel layout : L R C LFE Ls Rs

  54. Sampling rate : 48.0 kHz

  55. Frame rate : 1 200.000 FPS (40 SPF)

  56. Compression mode : Lossless

  57. Stream size : 1.08 GiB (9%)

  58. Title : German Dolby TrueHD 5.1 @ 2013 kbps

  59. Language : German

  60. Default : Yes

  61. Forced : No

  62. Audio #2

  63. ID : 3

  64. Format : AC-3

  65. Format/Info : Audio Coding 3

  66. Commercial name : Dolby Digital

  67. Codec ID : A_AC3

  68. Duration : 1 h 38 min

  69. Bit rate mode : Constant

  70. Bit rate : 448 kb/s

  71. Channel(s) : 6 channels

  72. Channel layout : L R C LFE Ls Rs

  73. Sampling rate : 48.0 kHz

  74. Frame rate : 31.250 FPS (1536 SPF)

  75. Compression mode : Lossy

  76. Stream size : 317 MiB (2%)

  77. Title : German Dolby Digital Audio 5.1 @ 640 kbps

  78. Language : German

  79. Service kind : Complete Main

  80. Default : No

  81. Forced : No

  82. Audio #3

  83. ID : 4

  84. Format : DTS

  85. Format/Info : Digital Theater Systems

  86. Codec ID : A_DTS

  87. Duration : 1 h 38 min

  88. Bit rate mode : Constant

  89. Bit rate : 1 510 kb/s

  90. Channel(s) : 6 channels

  91. Channel layout : C L R Ls Rs LFE

  92. Sampling rate : 48.0 kHz

  93. Frame rate : 93.750 FPS (512 SPF)

  94. Bit depth : 24 bits

  95. Compression mode : Lossy

  96. Stream size : 1.04 GiB (8%)

  97. Title : Mandarin DTS 5.1 @ 1509 kbps 上译国语

  98. Language : Chinese

  99. Default : No

  100. Forced : No

  101. Audio #4

  102. ID : 5

  103. Format : DTS

  104. Format/Info : Digital Theater Systems

  105. Codec ID : A_DTS

  106. Duration : 1 h 38 min

  107. Bit rate mode : Constant

  108. Bit rate : 754 kb/s

  109. Channel(s) : 6 channels

  110. Channel layout : C L R Ls Rs LFE

  111. Sampling rate : 48.0 kHz

  112. Frame rate : 93.750 FPS (512 SPF)

  113. Bit depth : 24 bits

  114. Compression mode : Lossy

  115. Stream size : 534 MiB (4%)

  116. Title : Mandarin DTS 5.1 @ 768 kbps 长译国语

  117. Language : Chinese

  118. Default : No

  119. Forced : No

  120. Text #1

  121. ID : 6

  122. Format : PGS

  123. Codec ID : S_HDMV/PGS

  124. Codec ID/Info : Picture based subtitle format used on BDs/HD-DVDs

  125. Duration : 1 h 34 min

  126. Bit rate : 27.3 kb/s

  127. Count of elements : 1794

  128. Stream size : 18.4 MiB (0%)

  129. Title : Eng/SUP SDH

  130. Language : English

  131. Default : No

  132. Forced : No

  133. Text #2

  134. ID : 7

  135. Format : PGS

  136. Codec ID : S_HDMV/PGS

  137. Codec ID/Info : Picture based subtitle format used on BDs/HD-DVDs

  138. Duration : 1 h 34 min

  139. Bit rate : 26.1 kb/s

  140. Count of elements : 2368

  141. Stream size : 17.7 MiB (0%)

  142. Title : Eng/SUP

  143. Language : English

  144. Default : No

  145. Forced : No

  146. Text #3

  147. ID : 8

  148. Format : PGS

  149. Codec ID : S_HDMV/PGS

  150. Codec ID/Info : Picture based subtitle format used on BDs/HD-DVDs

  151. Duration : 1 h 34 min

  152. Bit rate : 17.9 kb/s

  153. Count of elements : 1687

  154. Stream size : 12.1 MiB (0%)

  155. Title : Chs/SUP TLF简体

  156. Language : Chinese

  157. Default : Yes

  158. Forced : No

  159. Text #4

  160. ID : 9

  161. Format : PGS

  162. Codec ID : S_HDMV/PGS

  163. Codec ID/Info : Picture based subtitle format used on BDs/HD-DVDs

  164. Duration : 1 h 34 min

  165. Bit rate : 18.4 kb/s

  166. Count of elements : 1687

  167. Stream size : 12.4 MiB (0%)

  168. Title : Cht/SUP TLF繁体

  169. Language : Chinese

  170. Default : No

  171. Forced : No

  172. Text #5

  173. ID : 10

  174. Format : PGS

  175. Codec ID : S_HDMV/PGS

  176. Codec ID/Info : Picture based subtitle format used on BDs/HD-DVDs

  177. Duration : 1 h 34 min

  178. Bit rate : 14.5 kb/s

  179. Count of elements : 1784

  180. Stream size : 9.82 MiB (0%)

  181. Title : Chs/SUP R3简体

  182. Language : Chinese

  183. Default : No

  184. Forced : No

  185. Text #6

  186. ID : 11

  187. Format : PGS

  188. Codec ID : S_HDMV/PGS

  189. Codec ID/Info : Picture based subtitle format used on BDs/HD-DVDs

  190. Duration : 1 h 34 min

  191. Bit rate : 14.9 kb/s

  192. Count of elements : 1784

  193. Stream size : 10.1 MiB (0%)

  194. Title : Cht/SUP R3繁体

  195. Language : Chinese

  196. Default : No

  197. Forced : No

  198. Menu

  199. 00:00:00.000 : en:绗?01 绔?

  200. 00:05:31.998 : en:绗?02 绔?

  201. 00:11:20.346 : en:绗?03 绔?

  202. 00:18:43.456 : en:绗?04 绔?

  203. 00:22:10.454 : en:绗?05 绔?

  204. 00:29:46.910 : en:绗?06 绔?

  205. 00:36:23.681 : en:绗?07 绔?

  206. 00:43:44.914 : en:绗?08 绔?

  207. 00:47:01.027 : en:绗?09 绔?

  208. 00:50:13.344 : en:绗?10 绔?

  209. 00:57:06.632 : en:绗?11 绔?

  210. 01:04:15.477 : en:绗?12 绔?

  211. 01:10:38.067 : en:绗?13 绔?

  212. 01:19:33.727 : en:绗?14 绔?

  213. 01:23:24.166 : en:绗?15 绔?

  214. 01:29:25.735 : en:绗?16 绔?


复制代码


TAGS 剧情 犯罪 战争 /

磁力链:
  • magnet:?xt=urn:btih:E215600EC1B8B53778B5E9B3B77D8279BEA1F276
上传的附件:
BT9527电影天堂 1、BT9527电影天堂提供的BT文件均来源于互联网抓取,只供网友学习交流、技术提升使用。
2、我们遵守BitTorrent点对点协议原则,任何版权问题请联系原资源发布商,我们不处理任何版权纠纷,谢谢!如有争议请联系邮箱:BT9527#hotmail.com(#换成@)
3、如果您发现某页面或地址有错误,请联系站长邮箱BT9527#hotmail.com(#换成@),我们会尽快处理。您的热心是对BT9527电影天堂最大的支持。
4、本站建议去正规影院观看电影以支持电影行业发展。
最新回复 (0)

你可以在 登录 or 注册 后,对此帖发表评论!

返回
发新帖