青年鲁班[国语配音].Qing.Nian.Lu.Ban.1964.1080p.WEB-DL.H264.AAC-HDBWEB 3.68GB

版主小s 1月前 113



◎译  名 青年鲁班
◎年  代 1964
◎产  地 中国大陆
◎类  别 剧情
◎语  言 汉语普通话
◎IMDb链接 https://www.imdb.com/title/tt14433390/
◎豆瓣评分 6.7/10 (142人评价)
◎豆瓣链接 https://movie.douban.com/subject/1498713/
◎片  长 91分钟
◎导  演 史大千 Daqian Shi (id:1339922)
◎编  剧 史大千 Daqian Shi (id:1339922)
◎演  员 毕鉴昌 Jianchang Bi (id:1362548)
       李长乐 Changle Li (id:1363020)
       张璋 Zhang Zhang (id:1367319)
       方辉 Hui Fang (id:1332577)
       王斑 Ban Wang (id:1369460)
       葛存壮 Cunzhuang Ge (id:1275415)
       李孟尧 Mengyao Li (id:1381582)
       张莹 Ying Zhang (id:1316340)
       王彪 Biao Wang (id:1402994)
       李健 Jian Li (id:1397425)
       封顺 Shun Feng (id:1344505)
       吴素琴 Suqin Wu (id:1404849)
       于振羽 Zhenyu Yu (id:1435831)
       张先得 Xiande Zhang (id:1411726)
       冯桂香 Guixiang Feng (id:1405060)

◎简  介
  建筑工人李三辈(毕鑑昌 饰)文化水平低,他常为此苦恼,大学生秦淑贞(李长乐 饰)是夜校老师,开始时她瞧不起三辈这样的笨学生,认为他们只配干粗活。但当她了解三辈的出身后,改变了原有的看法。几年后,三辈通过刻苦学习,已成长为能看建筑图纸的“土专家”。一次施工中为了图速度,忽视了向老工人师傅学习经验,操作失败,三辈摔成重伤。事后三辈主动承认错误,高师傅(王斑 饰)、秦淑贞也作了自我批评。1960年,三辈调往另一大型建筑工地,他边学习边钻研,向工地领导提出自己的革新建议,得到专家认可,但也有人反对,最后,在陈书记(张荧 饰)的支持下,他收获了成功,也收获了秦淑贞的爱情......

  1. ##### MediaInfo ######
  2. General
  3. Complete name                            : 青年鲁班.Qing.Nian.Lu.Ban.1964.1080p.WEB-DL.H264.AAC-HDBWEB.mp4
  4. Format                                   : MPEG-4
  5. Format profile                           : Base Media
  6. Codec ID                                 : isom (isom/iso2/avc1/mp41)
  7. File size                                : 3.68 GiB
  8. Duration                                 : 1 h 25 min
  9. Overall bit rate mode                    : Variable
  10. Overall bit rate                         : 6 165 kb/s
  11. Writing application                      : OurTV Multimedia Platform
  12. Video
  13. ID                                       : 1
  14. Format                                   : AVC
  15. Format/Info                              : Advanced Video Codec
  16. Format profile                           : High@L4
  17. Format settings                          : CABAC / 3 Ref Frames
  18. Format settings, CABAC                   : Yes
  19. Format settings, Reference frames        : 3 frames
  20. Format settings, GOP                     : M=4, N=50
  21. Codec ID                                 : avc1
  22. Codec ID/Info                            : Advanced Video Coding
  23. Duration                                 : 1 h 25 min
  24. Source duration                          : 1 h 25 min
  25. Bit rate mode                            : Variable
  26. Bit rate                                 : 5 787 kb/s
  27. Maximum bit rate                         : 7 500 kb/s
  28. Width                                    : 1 920 pixels
  29. Height                                   : 1 080 pixels
  30. Display aspect ratio                     : 16:9
  31. Frame rate mode                          : Constant
  32. Frame rate                               : 25.000 FPS
  33. Color space                              : YUV
  34. Chroma subsampling                       : 4:2:0
  35. Bit depth                                : 8 bits
  36. Scan type                                : Progressive
  37. Bits/(Pixel*Frame)                       : 0.112
  38. Stream size                              : 3.45 GiB (94%)
  39. Source stream size                       : 3.60 GiB (98%)
  40. mdhd_Duration                            : 5128642
  41. Codec configuration box                  : avcC
  42. Audio
  43. ID                                       : 2
  44. Format                                   : AAC LC
  45. Format/Info                              : Advanced Audio Codec Low Complexity
  46. Codec ID                                 : mp4a-40-2
  47. Duration                                 : 1 h 25 min
  48. Bit rate mode                            : Variable
  49. Bit rate                                 : 125 kb/s
  50. Maximum bit rate                         : 129 kb/s / 129 kb/s
  51. Channel(s)                               : 2 channels
  52. Channel layout                           : L R
  53. Sampling rate                            : 48.0 kHz
  54. Frame rate                               : 46.875 FPS (1024 SPF)
  55. Compression mode                         : Lossy
  56. Stream size                              : 76.7 MiB (2%)
  57. Language                                 : English
  58. Default                                  : Yes
  59. Alternate group                          : 1
复制代码




TAGS 剧情

磁力链:
  • magnet:?xt=urn:btih:39001A1B6118E9BF05BB42E4A3D5C1D192594D56
上传的附件:
BT9527电影天堂 1、BT9527电影天堂提供的BT文件均来源于互联网抓取,只供网友学习交流、技术提升使用。
2、我们遵守BitTorrent点对点协议原则,任何版权问题请联系原资源发布商,我们不处理任何版权纠纷,谢谢!如有争议请联系邮箱:BT9527#hotmail.com(#换成@)
3、如果您发现某页面或地址有错误,请联系站长邮箱BT9527#hotmail.com(#换成@),我们会尽快处理。您的热心是对BT9527电影天堂最大的支持。
4、本站建议去正规影院观看电影以支持电影行业发展。
最新回复 (0)

你可以在 登录 or 注册 后,对此帖发表评论!

返回
发新帖