塔斯克基飞行员[简繁英字幕].The.Tuskegee.Airmen.1995.1080p.BluRay.DTS.x265-10bit-ENTHD 7.57GB

版主小s 26天前 155



◎译  名 塔斯克基飞行员 / 黑色轰炸机
◎片  名 The Tuskegee Airmen
◎年  代 1995
◎产  地 美国
◎类  别 剧情 / 动作 / 战争
◎上映日期 1995-08-26
◎IMDb链接 https://www.imdb.com/title/tt0114745/
◎豆瓣评分 7.2/10 (334人评价)
◎豆瓣链接 https://movie.douban.com/subject/1295541/
◎片  长 106分钟(美国)
◎导  演 罗伯特·马克威治 Robert Markowitz (id:1291027)
◎编  剧 Paris Qualles Paris Qualles (id:1295049)
       罗伯特·威廉斯 Robert Williams (id:1166018)
       罗恩·哈钦森 Ron Hutchinson (id:1287211)
       Trey Ellis Trey Ellis (id:1283143)
       Robert Williams Robert Williams (id:1300989)
◎演  员 劳伦斯·菲什伯恩 Laurence Fishburne (id:1022596)
       麦克斯·丹尼尔斯 Max Daniels (id:1281790)
       Brett A. Jones Brett A. Jones (id:1287852)
       Eddie Braun Eddie Braun (id:1279220)
       马可·佩雷拉 Marco Perella (id:1341873)
       Robert Williams Robert Williams (id:1300989)
       Carol Bahoric Carol Bahoric (id:1277683)
       Bill Carraro Bill Carraro (id:1280148)
       Ron Orieux Ron Orieux (id:1293622)
       David Beatty David Beatty (id:1278162)
       Robi Reed-Humes Robi Reed-Humes (id:1295374)
       Russell J. Smith Russell J. Smith (id:1297929)
       Kevin LaRosa Kevin LaRosa (id:1289209)
       迈克尔·马斯卡尔 Michael Muscal (id:1292788)
       雷·麦金太尔 Ray McIntyre Jr. (id:1291625)

◎简  介
  影片《黑色轰炸机》以第二次世界大战为背景,讲述了一段黑人为保卫祖国而战的故事。在二战期间,美国需要更多的飞行员,国会提出是不是可以试验,组成一个叫塔斯克吉飞行队,在阿拉巴马洲建立试验性的飞行训练中心,训练了一批黑人飞行员与白人共同保卫自己的家园。

◎获奖情况 (共1项)
  第53届金球奖 (1996)
  电视类 限定剧/电视电影最佳男主角(提名)
   └──劳伦斯·菲什伯恩 (id:1022596)

  1. ##### MediaInfo ######
  2. General
  3. Unique ID                                : 100402264705437762025074076615647978744 (0x4B88C5D6BF933D1CDD3DADB2D7E064F8)
  4. Complete name                            : 塔斯克基飞行员.The.Tuskegee.Airmen.1995.1080p.BluRay.DTS.x265-10bit-ENTHD.mkv
  5. Format                                   : Matroska
  6. Format version                           : Version 4
  7. File size                                : 7.57 GiB
  8. Duration                                 : 1 h 46 min
  9. Overall bit rate                         : 10.2 Mb/s
  10. Movie name                               : 塔斯克基飞行员 The Tuskegee Airmen 1995 1080p BluRay DTS x265-10bit-HDS
  11. Encoded date                             : UTC 2022-06-03 09:09:21
  12. Writing application                      : mkvmerge v67.0.0 ('Under Stars') 64-bit
  13. Writing library                          : libebml v1.4.2 + libmatroska v1.6.4
  14. Video
  15. ID                                       : 1
  16. Format                                   : HEVC
  17. Format/Info                              : High Efficiency Video Coding
  18. Format profile                           : Main 10@L5.1@High
  19. Codec ID                                 : V_MPEGH/ISO/HEVC
  20. Duration                                 : 1 h 46 min
  21. Bit rate                                 : 8 646 kb/s
  22. Width                                    : 1 920 pixels
  23. Height                                   : 1 080 pixels
  24. Display aspect ratio                     : 16:9
  25. Frame rate mode                          : Constant
  26. Frame rate                               : 23.976 (24000/1001/53354) FPS
  27. Color space                              : YUV
  28. Chroma subsampling                       : 4:2:0
  29. Bit depth                                : 10 bits
  30. Bits/(Pixel*Frame)                       : 0.174
  31. Stream size                              : 6.41 GiB (85%)
  32. Title                                    : venjulegt@HDSky
  33. Writing library                          : x265 - H.265/HEVC codec
  34. Default                                  : Yes
  35. Forced                                   : No
  36. Audio
  37. ID                                       : 2
  38. Format                                   : DTS
  39. Format/Info                              : Digital Theater Systems
  40. Codec ID                                 : A_DTS
  41. Duration                                 : 1 h 46 min
  42. Bit rate mode                            : Constant
  43. Bit rate                                 : 1 509 kb/s
  44. Channel(s)                               : 6 channels
  45. Channel layout                           : C L R Ls Rs LFE
  46. Sampling rate                            : 48.0 kHz
  47. Frame rate                               : 93.750 FPS (512 SPF)
  48. Bit depth                                : 24 bits
  49. Compression mode                         : Lossy
  50. Stream size                              : 1.12 GiB (15%)
  51. Title                                    : English
  52. Language                                 : English
  53. Default                                  : Yes
  54. Forced                                   : No
  55. Text #1
  56. ID                                       : 3
  57. Format                                   : PGS
  58. Muxing mode                              : zlib
  59. Codec ID                                 : S_HDMV/PGS
  60. Codec ID/Info                            : Picture based subtitle format used on BDs/HD-DVDs
  61. Duration                                 : 1 h 42 min
  62. Bit rate                                 : 32.6 kb/s
  63. Count of elements                        : 2171
  64. Stream size                              : 23.8 MiB (0%)
  65. Title                                    : CHS
  66. Language                                 : Chinese
  67. Default                                  : Yes
  68. Forced                                   : No
  69. Text #2
  70. ID                                       : 4
  71. Format                                   : PGS
  72. Muxing mode                              : zlib
  73. Codec ID                                 : S_HDMV/PGS
  74. Codec ID/Info                            : Picture based subtitle format used on BDs/HD-DVDs
  75. Duration                                 : 1 h 42 min
  76. Bit rate                                 : 33.8 kb/s
  77. Count of elements                        : 2171
  78. Stream size                              : 24.8 MiB (0%)
  79. Title                                    : CHT
  80. Language                                 : Chinese
  81. Default                                  : Yes
  82. Forced                                   : No
  83. Text #3
  84. ID                                       : 5
  85. Format                                   : PGS
  86. Muxing mode                              : zlib
  87. Codec ID                                 : S_HDMV/PGS
  88. Codec ID/Info                            : Picture based subtitle format used on BDs/HD-DVDs
  89. Duration                                 : 1 h 39 min
  90. Bit rate                                 : 43.0 kb/s
  91. Count of elements                        : 2280
  92. Stream size                              : 30.5 MiB (0%)
  93. Title                                    : ENG
  94. Language                                 : English
  95. Default                                  : Yes
  96. Forced                                   : No
  97. Menu
  98. 00:00:00.000                             : en:第 01 章
  99. 00:08:37.267                             : en:第 02 章
  100. 00:22:44.363                             : en:第 03 章
  101. 00:24:51.198                             : en:第 04 章
  102. 00:30:41.757                             : en:第 05 章
  103. 00:34:46.876                             : en:第 06 章
  104. 00:39:44.048                             : en:第 07 章
  105. 00:43:03.456                             : en:第 08 章
  106. 00:48:09.720                             : en:第 09 章
  107. 00:52:37.571                             : en:第 10 章
  108. 01:02:31.247                             : en:第 11 章
  109. 01:12:35.351                             : en:第 12 章
  110. 01:28:19.920                             : en:第 13 章
  111. 01:36:58.354                             : en:第 14 章
  112. 01:41:05.226                             : en:第 15 章
  113. 01:42:37.151                             : en:第 16 章
复制代码




TAGS 动作 剧情 战争 /

磁力链:
  • magnet:?xt=urn:btih:903F4C703A26699DE02DEBEA56910BF3DDDD8833
上传的附件:
BT9527电影天堂 1、BT9527电影天堂提供的BT文件均来源于互联网抓取,只供网友学习交流、技术提升使用。
2、我们遵守BitTorrent点对点协议原则,任何版权问题请联系原资源发布商,我们不处理任何版权纠纷,谢谢!如有争议请联系邮箱:BT9527#hotmail.com(#换成@)
3、如果您发现某页面或地址有错误,请联系站长邮箱BT9527#hotmail.com(#换成@),我们会尽快处理。您的热心是对BT9527电影天堂最大的支持。
4、本站建议去正规影院观看电影以支持电影行业发展。
最新回复 (0)

你可以在 登录 or 注册 后,对此帖发表评论!

返回
发新帖