承包商[中文字幕].The.Contractor.2022.BluRay.2160p.DTS-HDMA7.1.HDR.x265.10bit-CTRLHD 19.33GB

版主小s 26天前 120



◎译  名 承包商 / 救命缉约(台) / 暴力行动 / 契约者 / 孤佣兵(港) / Violence of Action
◎片  名 The Contractor
◎年  代 2022
◎产  地 美国
◎类  别 动作 / 惊悚
◎语  言 英语
◎上映日期 2022-04-01(美国)
◎IMDb链接 https://www.imdb.com/title/tt10323676/
◎豆瓣评分 5.9/10 (5030人评价)
◎豆瓣链接 https://movie.douban.com/subject/33442722/
◎片  长 103分钟
◎导  演 塔里克·萨利赫 Tarik Saleh (id:1296510)
◎编  剧 J·P·戴维斯 J.P. Davis (id:1314254)
◎演  员 克里斯·派恩 Chris Pine (id:1053621)
       基弗·萨瑟兰 Kiefer Sutherland (id:1053575)
       本·福斯特 Ben Foster (id:1040512)
       吉莉安·雅各布斯 Gillian Jacobs (id:1274992)
       埃迪·马森 Eddie Marsan (id:1291072)
       泰特·弗莱彻 Tait Fletcher (id:1389967)
       弗罗里安·穆特鲁 Florian Munteanu (id:1403708)
       法瑞斯·法瑞斯 Fares Fares (id:1045340)
       尼娜·霍斯 Nina Hoss (id:1009688)
       J.D.普拉多 J.D. Pardo (id:1179331)
       阿蜜拉·卡萨 Amira Casar (id:1045238)
       亚力克桑杰·麦沃洛夫 Alexej Manvelov (id:1353382)
       马修·马什 Matthew Marsh (id:1120042)
       泰娜·拉欣 Tyner Rushing (id:1395028)
       帕蒂·舍尔哈斯 Patti Schellhaas (id:1395930)
       乔治·皮斯特拉努 George Pistereanu (id:1367289)
       科里·斯科特·艾伦 Cory Scott Allen (id:1360689)
       里贾纳·陈婷 Regina Ting Chen (id:1357977)
       蒂莫西·卡尔 Timothy Carr (id:1392730)
       金 King (id:1334780)
       山德·托马斯 Sander Thomas (id:1398085)
       杰克琳·怀特 Jaclyn White (id:1440513)

◎简  介
  神秘契约背后隐藏的危机,原来是一场精心策划的致命阴谋。身处异国孤军奋战,该如何杀出重围、活着回家?                                    
                                故事讲述被迫从海军陆战队退伍后,詹姆斯·里德(克里斯·派恩 饰)加入了一个准军事组织来维持生计。第一次执行任务时,里德就在东欧遭到追捕。他必须努力活到足够长的时间才能回家,并找出背叛他的人的真正动机。

  1. ##### MediaInfo ######
  2. General
  3. Unique ID                                : 23044060516962254796385013711496078163 (0x11561FE707B1E0A489F99BA74310E353)
  4. Complete name                            : The.Contractor.2022.BluRay.2160p.DTS-HDMA7.1.HDR.x265.10bit-CTRLHD.mkv
  5. Format                                   : Matroska
  6. Format version                           : Version 4
  7. File size                                : 19.3 GiB
  8. Duration                                 : 1 h 43 min
  9. Overall bit rate mode                    : Variable
  10. Overall bit rate                         : 26.8 Mb/s
  11. Encoded date                             : UTC 2022-06-03 14:04:47
  12. Writing application                      : mkvmerge v62.0.0 ('Apollo') 64-bit
  13. Writing library                          : libebml v1.4.2 + libmatroska v1.6.4
  14. Video
  15. ID                                       : 1
  16. Format                                   : HEVC
  17. Format/Info                              : High Efficiency Video Coding
  18. Format profile                           : Main 10@L5@Main
  19. HDR format                               : SMPTE ST 2086, HDR10 compatible
  20. Codec ID                                 : V_MPEGH/ISO/HEVC
  21. Duration                                 : 1 h 43 min
  22. Bit rate                                 : 22.1 Mb/s
  23. Width                                    : 3 840 pixels
  24. Height                                   : 1 604 pixels
  25. Display aspect ratio                     : 2.40:1
  26. Frame rate mode                          : Constant
  27. Frame rate                               : 23.976 (24000/1001/53354) FPS
  28. Original frame rate                      : 23.976 (23976/1000/53354) FPS
  29. Color space                              : YUV
  30. Chroma subsampling                       : 4:2:0 (Type 2)
  31. Bit depth                                : 10 bits
  32. Bits/(Pixel*Frame)                       : 0.150
  33. Stream size                              : 15.9 GiB (83%)
  34. Writing library                          : x265 3.5+10-82786fccc:[Windows][MSVC 1929][64 bit] 10bit
  35. Encoding settings                        : cpuid=533541111039 / frame-threads=5 / numa-pools=36,36 / wpp / no-pmode / no-pme / no-psnr / no-ssim / log-level=2 / input-csp=1 / input-res=3840x1604 / interlace=0 / total-frames=0 / level-idc=0 / high-tier=1 / uhd-bd=0 / ref=6 / no-allow-non-conformance / repeat-headers / annexb / no-aud / no-eob / no-eos / no-hrd / info / hash=0 / no-temporal-layers / no-open-gop / min-keyint=23 / keyint=250 / gop-lookahead=0 / bframes=14 / b-adapt=2 / b-pyramid / bframe-bias=0 / rc-lookahead=75 / lookahead-slices=8 / NTMzNTQ=uuDQuD2mJt9fsCf / scenecut=40 / hist-scenecut=0 / radl=0 / no-splice / no-intra-refresh / ctu=32 / min-cu-size=8 / no-rect / no-amp / max-tu-size=32 / tu-inter-depth=1 / tu-intra-depth=1 / limit-tu=0 / rdoq-level=2 / dynamic-rd=0.00 / no-ssim-rd / signhide / no-tskip / nr-intra=0 / nr-inter=0 / no-constrained-intra / no-strong-intra-smoothing / max-merge=3 / limit-refs=1 / no-limit-modes / me=3 / subme=7 / merange=64 / temporal-mvp / no-frame-dup / no-hme / weightp / weightb / no-analyze-src-pics / deblock=0:0 / no-sao / no-sao-non-deblock / rd=4 / selective-sao=0 / no-early-skip / rskip / no-fast-intra / no-tskip-fast / no-cu-lossless / b-intra / no-splitrd-skip / rdpenalty=2 / psy-rd=3.00 / psy-rdoq=4.80 / no-rd-refine / no-lossless / cbqpoffs=0 / crqpoffs=0 / rc=crf / crf=14.5 / qcomp=0.60 / qpstep=4 / stats-write=0 / stats-read=0 / ipratio=1.40 / pbratio=1.30 / aq-mode=1 / aq-strength=1.00 / cutree / zone-count=0 / no-strict-cbr / qg-size=32 / no-rc-grain / qpmax=69 / qpmin=0 / no-const-vbv / sar=0 / overscan=0 / videoformat=5 / range=0 / colorprim=9 / transfer=16 / colormatrix=9 / chromaloc=1 / chromaloc-top=2 / chromaloc-bottom=2 / display-window=0 / master-display=G(8500,39850)B(6550,2300)R(35400,14600)WP(15635,16450)L(10000000,1) / cll=1001,113 / min-luma=0 / max-luma=1023 / log2-max-poc-lsb=8 / vui-timing-info / vui-hrd-info / slices=1 / no-opt-qp-pps / no-opt-ref-list-length-pps / no-multi-pass-opt-rps / scenecut-bias=0.05 / hist-threshold=0.03 / no-opt-cu-delta-qp / aq-motion / hdr10 / hdr10-opt / no-dhdr10-opt / no-idr-recovery-sei / analysis-reuse-level=0 / analysis-save-reuse-level=0 / analysis-load-reuse-level=0 / scale-factor=0 / refine-intra=0 / refine-inter=0 / refine-mv=1 / refine-ctu-distortion=0 / no-limit-sao / ctu-info=0 / no-lowpass-dct / refine-analysis-type=0 / copy-pic=1 / max-ausize-factor=1.0 / no-dynamic-refine / no-single-sei / no-hevc-aq / no-svt / no-field / qp-adaptation-range=1.00 / scenecut-aware-qp=0conformance-window-offsets / right=0 / bottom=0 / NTMzNTQ= / decoder-max-rate=0 / no-vbv-live-multi-pass
  36. Default                                  : Yes
  37. Forced                                   : No
  38. Color range                              : Limited
  39. Color primaries                          : BT.2020
  40. Transfer characteristics                 : PQ
  41. Matrix coefficients                      : BT.2020 non-constant
  42. Mastering display color primaries        : BT.2020
  43. Mastering display luminance              : min: 0.0001 cd/m2, max: 1000 cd/m2
  44. Maximum Content Light Level              : 1001 cd/m2
  45. Maximum Frame-Average Light Level        : 113 cd/m2
  46. Audio
  47. ID                                       : 2
  48. ID in the original source medium         : 4352 (0x1100)
  49. Format                                   : DTS XLL
  50. Format/Info                              : Digital Theater Systems
  51. Commercial name                          : DTS-HD Master Audio
  52. Codec ID                                 : A_DTS
  53. Duration                                 : 1 h 43 min
  54. Bit rate mode                            : Variable
  55. Bit rate                                 : 4 627 kb/s
  56. Channel(s)                               : 8 channels
  57. Channel layout                           : C L R LFE Lb Rb Lss Rss
  58. Sampling rate                            : 48.0 kHz
  59. Frame rate                               : 93.750 FPS (512 SPF)
  60. Bit depth                                : 24 bits
  61. Compression mode                         : Lossless
  62. Stream size                              : 3.34 GiB (17%)
  63. Language                                 : English
  64. Default                                  : Yes
  65. Forced                                   : No
  66. Original source medium                   : Blu-ray
  67. Text #1
  68. ID                                       : 3
  69. Format                                   : PGS
  70. Muxing mode                              : zlib
  71. Codec ID                                 : S_HDMV/PGS
  72. Codec ID/Info                            : Picture based subtitle format used on BDs/HD-DVDs
  73. Duration                                 : 1 h 36 min
  74. Bit rate                                 : 16.4 kb/s
  75. Count of elements                        : 1635
  76. Stream size                              : 11.3 MiB (0%)
  77. Language                                 : Chinese
  78. Default                                  : Yes
  79. Forced                                   : No
  80. Text #2
  81. ID                                       : 4
  82. Format                                   : PGS
  83. Muxing mode                              : zlib
  84. Codec ID                                 : S_HDMV/PGS
  85. Codec ID/Info                            : Picture based subtitle format used on BDs/HD-DVDs
  86. Duration                                 : 1 h 36 min
  87. Bit rate                                 : 16.6 kb/s
  88. Count of elements                        : 1635
  89. Stream size                              : 11.5 MiB (0%)
  90. Language                                 : Chinese
  91. Default                                  : No
  92. Forced                                   : No
  93. Text #3
  94. ID                                       : 5
  95. Format                                   : PGS
  96. Muxing mode                              : zlib
  97. Codec ID                                 : S_HDMV/PGS
  98. Codec ID/Info                            : Picture based subtitle format used on BDs/HD-DVDs
  99. Duration                                 : 1 h 36 min
  100. Bit rate                                 : 30.5 kb/s
  101. Count of elements                        : 1635
  102. Stream size                              : 21.1 MiB (0%)
  103. Language                                 : Chinese
  104. Default                                  : No
  105. Forced                                   : No
  106. Text #4
  107. ID                                       : 6
  108. Format                                   : PGS
  109. Muxing mode                              : zlib
  110. Codec ID                                 : S_HDMV/PGS
  111. Codec ID/Info                            : Picture based subtitle format used on BDs/HD-DVDs
  112. Duration                                 : 1 h 36 min
  113. Bit rate                                 : 30.7 kb/s
  114. Count of elements                        : 1635
  115. Stream size                              : 21.3 MiB (0%)
  116. Language                                 : Chinese
  117. Default                                  : No
  118. Forced                                   : No
  119. Text #5
  120. ID                                       : 7
  121. ID in the original source medium         : 4608 (0x1200)
  122. Format                                   : PGS
  123. Muxing mode                              : zlib
  124. Codec ID                                 : S_HDMV/PGS
  125. Codec ID/Info                            : Picture based subtitle format used on BDs/HD-DVDs
  126. Duration                                 : 1 h 36 min
  127. Bit rate                                 : 23.6 kb/s
  128. Count of elements                        : 1594
  129. Stream size                              : 16.4 MiB (0%)
  130. Language                                 : English
  131. Default                                  : No
  132. Forced                                   : No
  133. Original source medium                   : Blu-ray
  134. Menu
  135. 00:00:00.000                             : en:第 01 章
  136. 00:08:33.179                             : en:第 02 章
  137. 00:15:19.043                             : en:第 03 章
  138. 00:21:55.564                             : en:第 04 章
  139. 00:28:52.856                             : en:第 05 章
  140. 00:36:15.882                             : en:第 06 章
  141. 00:46:04.595                             : en:第 07 章
  142. 00:53:05.098                             : en:第 08 章
  143. 00:59:15.343                             : en:第 09 章
  144. 01:07:16.032                             : en:第 10 章
  145. 01:13:30.406                             : en:第 11 章
  146. 01:22:28.234                             : en:第 12 章
  147. 01:30:48.234                             : en:第 13 章
  148. 01:37:43.065                             : en:第 14 章
复制代码




TAGS 动作 惊悚 /

磁力链:
  • magnet:?xt=urn:btih:811F93B98598514C9072D2E2BCE96F35CE2D0866
上传的附件:
BT9527电影天堂 1、BT9527电影天堂提供的BT文件均来源于互联网抓取,只供网友学习交流、技术提升使用。
2、我们遵守BitTorrent点对点协议原则,任何版权问题请联系原资源发布商,我们不处理任何版权纠纷,谢谢!如有争议请联系邮箱:BT9527#hotmail.com(#换成@)
3、如果您发现某页面或地址有错误,请联系站长邮箱BT9527#hotmail.com(#换成@),我们会尽快处理。您的热心是对BT9527电影天堂最大的支持。
4、本站建议去正规影院观看电影以支持电影行业发展。
最新回复 (0)

你可以在 登录 or 注册 后,对此帖发表评论!

返回
发新帖