杂牌军东征[中文字幕].Stripes.1981.Theatrical.Cut.2160p.HDR.UHD.BluRay.TrueHD.7.1.Atmos.x265-10bit-ENTHD 17.93GB

版主小s 1月前 168



◎译  名 杂牌军东征 / 天高地不厚 / 乌龙大头兵
◎片  名 Stripes
◎年  代 1981
◎产  地 美国
◎类  别 喜剧 / 战争
◎语  言 英语 / 俄语 / 波兰语
◎上映日期 1981-06-26
◎IMDb链接 https://www.imdb.com/title/tt0083131/
◎豆瓣评分 6.3/10 (1219人评价)
◎豆瓣链接 https://movie.douban.com/subject/1293091/
◎片  长 106 分钟
◎导  演 伊万·雷特曼 Ivan Reitman (id:1041182)
◎编  剧 莱恩·布卢姆 Len Blum (id:1278839)
       丹尼尔·戈德堡 Daniel Goldberg (id:1285031)
       哈罗德·雷米斯 Harold Ramis (id:1040554)
◎演  员 比尔·默瑞 Bill Murray (id:1054508)
       哈罗德·雷米斯 Harold Ramis (id:1040554)
       沃伦·奥茨 Warren Oates (id:1010664)
       P·J·索尔丝 P.J. Soles (id:1010656)
       肖恩·杨 Sean Young (id:1041118)
       丹尼尔·戈德堡 Daniel Goldberg (id:1285031)
       米迦勒·卢西亚诺 Michael Luciano (id:1290424)
       卡尔·比迪斯康姆 Carl Biddiscombe (id:1278593)
       詹姆斯·H·斯宾塞 James H. Spencer (id:1298136)
       Richard Bruno Richard Bruno (id:1279505)
       卡罗尔·A·奥康奈尔 Carol A. O'Connell (id:1293382)
       James Lee McCoy James Lee McCoy (id:1291498)
       Chuck House Chuck House (id:1286978)
       詹姆斯·弗雷塔格 James M. Freitag (id:1284167)
       Richard Learman Richard Learman (id:1289604)

◎简  介
  屋漏偏遭连夜雨的约翰·温格(比尔·默瑞 Bill Murray 饰)不仅惨遭解雇,他的女友此刻也离他而去。前路渺茫的约翰在一时冲动下,说服了好友罗塞尔(哈罗德·雷米斯 Harold Ramis 饰)一起报名参了军。他们把军营想象成重塑自我的理想之地,却不曾料想到训练他们的是一个顽固又没有耐心的中士胡卡(沃伦·奥茨 Warren Oates 饰),队友更是各个平庸无能,常常做出很多让人啼笑皆非的囧事。两人为了追求漂亮性感的女宪兵斯泰拉(PJ·索尔丝  P.J. Soles 饰)和路易丝(肖恩·杨 Sean Young 饰),竟抢夺了一辆高科技军用车,意外的进入了苏联境内并卷入了一场国际事件。

  1. ##### MediaInfo ######
  2. General
  3. Unique ID                                : 117868251683940840258173097592508035667 (0x58AC997B85FC9EB76F0D8997F4B2B253)
  4. Complete name                            : Stripes.1981.Theatrical.Cut.2160p.HDR.UHD.BluRay.TrueHD.7.1.Atmos.x265-10bit-ENTHD.mkv
  5. Format                                   : Matroska
  6. Format version                           : Version 4
  7. File size                                : 17.9 GiB
  8. Duration                                 : 1 h 46 min
  9. Overall bit rate mode                    : Variable
  10. Overall bit rate                         : 24.2 Mb/s
  11. Movie name                               : Stripes
  12. Encoded date                             : UTC 2022-06-03 06:50:49
  13. Writing application                      : mkvmerge v67.0.0 ('Under Stars') 64-bit
  14. Writing library                          : libebml v1.4.2 + libmatroska v1.6.4
  15. Cover                                    : Yes
  16. Attachments                              : cover.jpg
  17. Video
  18. ID                                       : 1
  19. Format                                   : HEVC
  20. Format/Info                              : High Efficiency Video Coding
  21. Format profile                           : Main 10@L5.1@High
  22. HDR format                               : SMPTE ST 2086, HDR10 compatible
  23. Codec ID                                 : V_MPEGH/ISO/HEVC
  24. Duration                                 : 1 h 46 min
  25. Bit rate                                 : 17.1 Mb/s
  26. Width                                    : 3 840 pixels
  27. Height                                   : 2 072 pixels
  28. Display aspect ratio                     : 1.85:1
  29. Frame rate mode                          : Constant
  30. Frame rate                               : 23.976 (24000/1001/53354) FPS
  31. Color space                              : YUV
  32. Chroma subsampling                       : 4:2:0
  33. Bit depth                                : 10 bits
  34. Bits/(Pixel*Frame)                       : 0.090
  35. Stream size                              : 12.7 GiB (71%)
  36. Title                                    : @HDSky
  37. Writing library                          : x265 - H.265/HEVC codec
  38. Default                                  : Yes
  39. Forced                                   : No
  40. Color range                              : Limited
  41. Color primaries                          : BT.2020
  42. Transfer characteristics                 : PQ
  43. Matrix coefficients                      : BT.2020 non-constant
  44. Mastering display color primaries        : Display P3
  45. Mastering display luminance              : min: 0.0001 cd/m2, max: 1000 cd/m2
  46. Maximum Content Light Level              : 1995 cd/m2
  47. Maximum Frame-Average Light Level        : 477 cd/m2
  48. Audio #1
  49. ID                                       : 2
  50. ID in the original source medium         : 4352 (0x1100)
  51. Format                                   : MLP FBA 16-ch
  52. Format/Info                              : Meridian Lossless Packing FBA with 16-channel presentation
  53. Commercial name                          : Dolby TrueHD with Dolby Atmos
  54. Codec ID                                 : A_TRUEHD
  55. Duration                                 : 1 h 46 min
  56. Bit rate mode                            : Variable
  57. Bit rate                                 : 4 195 kb/s
  58. Maximum bit rate                         : 5 718 kb/s
  59. Channel(s)                               : 8 channels
  60. Channel layout                           : L R C LFE Ls Rs Lb Rb
  61. Sampling rate                            : 48.0 kHz
  62. Frame rate                               : 1 200.000 FPS (40 SPF)
  63. Bit depth                                : 24 bits
  64. Compression mode                         : Lossless
  65. Stream size                              : 3.11 GiB (17%)
  66. Title                                    : English
  67. Language                                 : English
  68. Default                                  : Yes
  69. Forced                                   : No
  70. Original source medium                   : Blu-ray
  71. Number of dynamic objects                : 11
  72. Bed channel count                        : 1 channel
  73. Bed channel configuration                : LFE
  74. Audio #2
  75. ID                                       : 3
  76. ID in the original source medium         : 4352 (0x1100)
  77. Format                                   : AC-3
  78. Format/Info                              : Audio Coding 3
  79. Commercial name                          : Dolby Digital
  80. Codec ID                                 : A_AC3
  81. Duration                                 : 1 h 46 min
  82. Bit rate mode                            : Constant
  83. Bit rate                                 : 640 kb/s
  84. Channel(s)                               : 6 channels
  85. Channel layout                           : L R C LFE Ls Rs
  86. Sampling rate                            : 48.0 kHz
  87. Frame rate                               : 31.250 FPS (1536 SPF)
  88. Compression mode                         : Lossy
  89. Stream size                              : 486 MiB (3%)
  90. Title                                    : English
  91. Language                                 : English
  92. Service kind                             : Complete Main
  93. Default                                  : No
  94. Forced                                   : No
  95. Original source medium                   : Blu-ray
  96. Audio #3
  97. ID                                       : 4
  98. ID in the original source medium         : 4353 (0x1101)
  99. Format                                   : DTS XLL
  100. Format/Info                              : Digital Theater Systems
  101. Commercial name                          : DTS-HD Master Audio
  102. Codec ID                                 : A_DTS
  103. Duration                                 : 1 h 46 min
  104. Bit rate mode                            : Variable
  105. Bit rate                                 : 2 158 kb/s
  106. Channel(s)                               : 6 channels
  107. Channel layout                           : C L R Ls Rs LFE
  108. Sampling rate                            : 48.0 kHz
  109. Frame rate                               : 93.750 FPS (512 SPF)
  110. Bit depth                                : 16 bits
  111. Compression mode                         : Lossless
  112. Stream size                              : 1.60 GiB (9%)
  113. Title                                    : English
  114. Language                                 : English
  115. Default                                  : No
  116. Forced                                   : No
  117. Original source medium                   : Blu-ray
  118. Text #1
  119. ID                                       : 5
  120. ID in the original source medium         : 4768 (0x12A0)
  121. Format                                   : PGS
  122. Muxing mode                              : zlib
  123. Codec ID                                 : S_HDMV/PGS
  124. Codec ID/Info                            : Picture based subtitle format used on BDs/HD-DVDs
  125. Duration                                 : 1 h 43 min
  126. Bit rate                                 : 37.2 kb/s
  127. Count of elements                        : 2950
  128. Stream size                              : 27.5 MiB (0%)
  129. Language                                 : English
  130. Default                                  : No
  131. Forced                                   : No
  132. Original source medium                   : Blu-ray
  133. Text #2
  134. ID                                       : 6
  135. ID in the original source medium         : 4772 (0x12A4)
  136. Format                                   : PGS
  137. Muxing mode                              : zlib
  138. Codec ID                                 : S_HDMV/PGS
  139. Codec ID/Info                            : Picture based subtitle format used on BDs/HD-DVDs
  140. Duration                                 : 1 h 42 min
  141. Bit rate                                 : 28.0 kb/s
  142. Count of elements                        : 2354
  143. Stream size                              : 20.6 MiB (0%)
  144. Title                                    : CHT
  145. Language                                 : Chinese
  146. Default                                  : No
  147. Forced                                   : No
  148. Original source medium                   : Blu-ray
  149. Menu
  150. 00:00:00.000                             : en:Chapter 01
  151. 00:11:13.464                             : en:Chapter 02
  152. 00:19:32.296                             : en:Chapter 03
  153. 00:28:41.177                             : en:Chapter 04
  154. 00:36:08.541                             : en:Chapter 05
  155. 00:38:58.669                             : en:Chapter 06
  156. 00:48:35.996                             : en:Chapter 07
  157. 00:51:16.823                             : en:Chapter 08
  158. 00:59:24.394                             : en:Chapter 09
  159. 01:08:34.735                             : en:Chapter 10
  160. 01:14:25.461                             : en:Chapter 11
  161. 01:18:27.202                             : en:Chapter 12
  162. 01:21:45.775                             : en:Chapter 13
  163. 01:28:11.619                             : en:Chapter 14
  164. 01:34:53.938                             : en:Chapter 15
  165. 01:39:50.442                             : en:Chapter 16


TAGS 喜剧 战争 /

磁力链:
  • magnet:?xt=urn:btih:BC70CF09CE0BB94E34921028E320B815DBB288E0
上传的附件:
BT9527电影天堂 1、BT9527电影天堂提供的BT文件均来源于互联网抓取,只供网友学习交流、技术提升使用。
2、我们遵守BitTorrent点对点协议原则,任何版权问题请联系原资源发布商,我们不处理任何版权纠纷,谢谢!如有争议请联系邮箱:BT9527#hotmail.com(#换成@)
3、如果您发现某页面或地址有错误,请联系站长邮箱BT9527#hotmail.com(#换成@),我们会尽快处理。您的热心是对BT9527电影天堂最大的支持。
4、本站建议去正规影院观看电影以支持电影行业发展。
最新回复 (0)

你可以在 登录 or 注册 后,对此帖发表评论!

返回
发新帖