八彩林亚珍[国语配音/中文字幕].Plain.Jane.to.the.Rescue.1982.Bluray.1080p.LPCM2.0.x265.10bit-CTRLHD 6.44GB

版主小s 4月前 355



◎译  名 八彩林亚珍 / Plain Jane to the Rescue
◎片  名 八彩林亞珍
◎年  代 1982
◎产  地 中国香港
◎类  别 喜剧 / 动作
◎语  言 粤语
◎上映日期 1982-10-21(中国香港)
◎IMDb链接 https://www.imdb.com/title/tt0083605/
◎豆瓣评分 7.0/10 (1632人评价)
◎豆瓣链接 https://movie.douban.com/subject/1304208/
◎片  长 86分钟
◎导  演 吴宇森 John Woo (id:1027853)
◎编  剧 吴宇森 John Woo (id:1027853)
       刘镇华 Chun-Wah Lau (id:1436336)
◎演  员 萧芳芳 Josephine Siao (id:1033099)
       许冠英 Ricky Hui (id:1023727)
       李琳琳 Lin Lin Li (id:1109052)
       陈星 Sing Chen (id:1033057)
       胡枫 Fung Woo (id:1313733)
       罗文 Roman Tam (id:1005740)
       胡大为 David Wu (id:1301332)
       曹查理 Charlie Cho (id:1275320)
       简而清 Yee Ching Gan (id:1385734)
       李名炀 Ming-yang Li (id:1289688)
       伍国健 Kwok-kin Ng (id:1418713)
       刘克宣 Hark-Sun Lau (id:1340134)
       冯敬文 Ging Man Fung (id:1341397)
       吴宇森 John Woo (id:1027853)
       吴康宁 Hong-Ning Ng (id:1447771)
       邹文怀 Raymond Chow (id:1016883)
       萧芳芳 Josephine Siao (id:1033099)
       刘鸿泉 Hung Chuen Lau (id:1318709)
       樊恭荣 Kung Wing Fan (id:1283421)
       柯星沛 Sing-Pui O (id:1288789)
       周少龙 Shao Lung Chou (id:1344862)

◎简  介
  林亚珍(萧芳芳 饰)是一位个性正直开朗的女子,最近,她正在找工作,然而,大大咧咧不拘小节的性格不仅令林亚珍四处碰壁,还惹出了不少的麻烦和笑话,这让自信满满的林亚珍感到十分失落。                                    
                                一次偶然中,林亚珍和儿时的玩伴曾非凡(许冠英 饰)重逢了,随后,曾非凡便向林亚珍展开了热烈的追求。然而,林亚珍的不解风情让曾非凡感到十分受挫,两人之间的感情能否顺利的进行下去呢?一个邪恶的财团打起了倒卖香港地皮的主意,林亚珍偶然之中得知了他们的阴谋,正义感满满的她发誓绝不能袖手旁观,屡屡破坏财团的诡计,却也因此而引来了杀身之祸。

  1. ##### MediaInfo ######
  2. General
  3. Unique ID                                : 293196585365969798787436175098536530035 (0xDC939BBBD506F7D02361E799F0501073)
  4. Complete name                            : Plain.Jane.to.the.Rescue.1982.Bluray.1080p.LPCM2.0.x265.10bit-CTRLHD.mkv
  5. Format                                   : Matroska
  6. Format version                           : Version 4
  7. File size                                : 6.44 GiB
  8. Duration                                 : 1 h 30 min
  9. Overall bit rate                         : 10.1 Mb/s
  10. Encoded date                             : UTC 2022-06-03 13:15:10
  11. Writing application                      : mkvmerge v62.0.0 ('Apollo') 64-bit
  12. Writing library                          : libebml v1.4.2 + libmatroska v1.6.4
  13. Video
  14. ID                                       : 1
  15. Format                                   : HEVC
  16. Format/Info                              : High Efficiency Video Coding
  17. Format profile                           : Main 10@L4@Main
  18. Codec ID                                 : V_MPEGH/ISO/HEVC
  19. Duration                                 : 1 h 30 min
  20. Bit rate                                 : 7 036 kb/s
  21. Width                                    : 1 920 pixels
  22. Height                                   : 816 pixels
  23. Display aspect ratio                     : 2.35:1
  24. Frame rate mode                          : Constant
  25. Frame rate                               : 24.000 FPS
  26. Color space                              : YUV
  27. Chroma subsampling                       : 4:2:0
  28. Bit depth                                : 10 bits
  29. Bits/(Pixel*Frame)                       : 0.187
  30. Stream size                              : 4.46 GiB (69%)
  31. Writing library                          : x265 3.5+10-82786fccc:[Windows][MSVC 1929][64 bit] 10bit
  32. Encoding settings                        : cpuid=533541111039 / frame-threads=5 / numa-pools=36,36 / wpp / no-pmode / no-pme / no-psnr / no-ssim / log-level=2 / input-csp=1 / input-res=1920x816 / interlace=0 / total-frames=0 / level-idc=0 / high-tier=1 / uhd-bd=0 / ref=6 / no-allow-non-conformance / repeat-headers / annexb / no-aud / no-eob / no-eos / no-hrd / info / hash=0 / no-temporal-layers / no-open-gop / min-keyint=24 / keyint=250 / gop-lookahead=0 / bframes=8 / b-adapt=2 / b-pyramid / bframe-bias=0 / rc-lookahead=24 / lookahead-slices=5 / NTMzNTQ=uuDQuD2mJt9fsCf / scenecut=40 / hist-scenecut=0 / radl=0 / no-splice / no-intra-refresh / ctu=64 / min-cu-size=8 / no-rect / no-amp / max-tu-size=32 / tu-inter-depth=1 / tu-intra-depth=1 / limit-tu=0 / rdoq-level=0 / dynamic-rd=0.00 / no-ssim-rd / signhide / no-tskip / nr-intra=0 / nr-inter=0 / no-constrained-intra / no-strong-intra-smoothing / max-merge=3 / limit-refs=1 / no-limit-modes / me=2 / subme=7 / merange=48 / temporal-mvp / no-frame-dup / no-hme / weightp / weightb / no-analyze-src-pics / deblock=0:0 / sao / no-sao-non-deblock / rd=4 / selective-sao=4 / early-skip / rskip / no-fast-intra / no-tskip-fast / no-cu-lossless / b-intra / no-splitrd-skip / rdpenalty=0 / psy-rd=2.00 / psy-rdoq=0.00 / no-rd-refine / no-lossless / cbqpoffs=0 / crqpoffs=0 / rc=crf / crf=16.0 / qcomp=0.60 / qpstep=4 / stats-write=0 / stats-read=0 / ipratio=1.40 / pbratio=1.30 / aq-mode=3 / aq-strength=1.00 / cutree / zone-count=0 / no-strict-cbr / qg-size=32 / no-rc-grain / qpmax=69 / qpmin=0 / no-const-vbv / sar=0 / overscan=0 / videoformat=5 / range=0 / colorprim=2 / transfer=2 / colormatrix=2 / chromaloc=0 / display-window=0 / cll=0,0 / min-luma=0 / max-luma=1023 / log2-max-poc-lsb=8 / vui-timing-info / vui-hrd-info / slices=1 / no-opt-qp-pps / no-opt-ref-list-length-pps / no-multi-pass-opt-rps / scenecut-bias=0.05 / hist-threshold=0.03 / no-opt-cu-delta-qp / aq-motion / no-hdr10 / no-hdr10-opt / no-dhdr10-opt / no-idr-recovery-sei / analysis-reuse-level=0 / analysis-save-reuse-level=0 / analysis-load-reuse-level=0 / scale-factor=0 / refine-intra=0 / refine-inter=0 / refine-mv=1 / refine-ctu-distortion=0 / no-limit-sao / ctu-info=0 / no-lowpass-dct / refine-analysis-type=0 / copy-pic=1 / max-ausize-factor=1.0 / no-dynamic-refine / no-single-sei / no-hevc-aq / no-svt / no-field / qp-adaptation-range=1.00 / scenecut-aware-qp=0conformance-window-offsets / right=0 / bottom=0 / NTMzNTQ= / decoder-max-rate=0 / no-vbv-live-multi-pass
  33. Default                                  : Yes
  34. Forced                                   : No
  35. Audio #1
  36. ID                                       : 2
  37. Format                                   : PCM
  38. Format settings                          : Little / Signed
  39. Codec ID                                 : A_PCM/INT/LIT
  40. Duration                                 : 1 h 30 min
  41. Bit rate mode                            : Constant
  42. Bit rate                                 : 1 536 kb/s
  43. Channel(s)                               : 2 channels
  44. Sampling rate                            : 48.0 kHz
  45. Frame rate                               : 25.000 FPS (1920 SPF)
  46. Bit depth                                : 16 bits
  47. Stream size                              : 998 MiB (15%)
  48. Language                                 : Chinese
  49. Default                                  : Yes
  50. Forced                                   : No
  51. Audio #2
  52. ID                                       : 3
  53. Format                                   : PCM
  54. Format settings                          : Little / Signed
  55. Codec ID                                 : A_PCM/INT/LIT
  56. Duration                                 : 1 h 30 min
  57. Bit rate mode                            : Constant
  58. Bit rate                                 : 1 536 kb/s
  59. Channel(s)                               : 2 channels
  60. Sampling rate                            : 48.0 kHz
  61. Frame rate                               : 25.000 FPS (1920 SPF)
  62. Bit depth                                : 16 bits
  63. Stream size                              : 998 MiB (15%)
  64. Language                                 : Chinese
  65. Default                                  : Yes
  66. Forced                                   : No
  67. Text #1
  68. ID                                       : 4
  69. Format                                   : PGS
  70. Muxing mode                              : zlib
  71. Codec ID                                 : S_HDMV/PGS
  72. Codec ID/Info                            : Picture based subtitle format used on BDs/HD-DVDs
  73. Duration                                 : 1 h 27 min
  74. Bit rate                                 : 28.6 kb/s
  75. Count of elements                        : 1788
  76. Stream size                              : 17.9 MiB (0%)
  77. Language                                 : Chinese
  78. Default                                  : Yes
  79. Forced                                   : No
  80. Text #2
  81. ID                                       : 5
  82. Format                                   : PGS
  83. Muxing mode                              : zlib
  84. Codec ID                                 : S_HDMV/PGS
  85. Codec ID/Info                            : Picture based subtitle format used on BDs/HD-DVDs
  86. Duration                                 : 1 h 27 min
  87. Bit rate                                 : 30.8 kb/s
  88. Count of elements                        : 1788
  89. Stream size                              : 19.4 MiB (0%)
  90. Language                                 : Chinese
  91. Default                                  : Yes
  92. Forced                                   : No
  93. Text #3
  94. ID                                       : 6
  95. Format                                   : PGS
  96. Muxing mode                              : zlib
  97. Codec ID                                 : S_HDMV/PGS
  98. Codec ID/Info                            : Picture based subtitle format used on BDs/HD-DVDs
  99. Duration                                 : 1 h 27 min
  100. Bit rate                                 : 23.3 kb/s
  101. Count of elements                        : 1788
  102. Stream size                              : 14.6 MiB (0%)
  103. Language                                 : English
  104. Default                                  : Yes
  105. Forced                                   : No
  106. Menu
  107. 00:00:00.000                             : en:第 01 章
  108. 00:10:45.875                             : en:第 02 章
  109. 00:18:24.000                             : en:第 03 章
  110. 00:27:29.333                             : en:第 04 章
  111. 00:39:51.333                             : en:第 05 章
  112. 00:48:01.125                             : en:第 06 章
  113. 00:56:45.958                             : en:第 07 章
  114. 01:05:00.958                             : en:第 08 章
  115. 01:09:09.333                             : en:第 09 章
  116. 01:16:34.208                             : en:第 10 章
  117. 01:21:36.333                             : en:第 11 章
  118. 01:28:49.083                             : en:第 12 章
复制代码




TAGS 动作 喜剧 /

磁力链:
  • magnet:?xt=urn:btih:3086381528A8AAA9397910742497D64A7623ADF7
上传的附件:
BT9527电影天堂 1、BT9527电影天堂提供的BT文件均来源于互联网抓取,只供网友学习交流、技术提升使用。
2、我们遵守BitTorrent点对点协议原则,任何版权问题请联系原资源发布商,我们不处理任何版权纠纷,谢谢!如有争议请联系邮箱:BT9527#hotmail.com(#换成@)
3、如果您发现某页面或地址有错误,请联系站长邮箱BT9527#hotmail.com(#换成@),我们会尽快处理。您的热心是对BT9527电影天堂最大的支持。
4、本站建议去正规影院观看电影以支持电影行业发展。
最新回复 (0)

你可以在 登录 or 注册 后,对此帖发表评论!

返回
发新帖