听见歌再唱[国语配音/中文字幕].Listen.Before.You.Sing.2021.Bluray.1080p.TrueHD5.1.x265.10bit-CTRLHD 6.20GB

版主小s 21天前 68



◎译  名 听见歌 再唱 / 听见歌在唱 / Kipahpah Ima / Listen Before You Sing
◎片  名 聽見歌 再唱
◎年  代 2021
◎产  地 中国台湾
◎类  别 喜剧 / 音乐
◎语  言 汉语普通话
◎上映日期 2021-04-09(中国台湾点映) / 2021-04-16(中国台湾)
◎IMDb链接 https://www.imdb.com/title/tt15448352/
◎豆瓣评分 7.2/10 (200人评价)
◎豆瓣链接 https://movie.douban.com/subject/30359474/
◎片  长 113分钟
◎导  演 杨智麟 Zhilin Yang (id:1342701)
◎演  员 马志翔 Umin Boya (id:1314142)
       陈嘉桦 Ella Chen (id:1313647)
       徐诣帆 Yi-Fan Hsu (id:1316578)
       撒基努 Sakinu (id:1364474)
       张惠春 Saya Chang (id:1313782)

◎简  介
  一个看不懂五线谱的合唱团指挥,一个到处流浪的音乐代课老师,和一群五音不全的原住民孩子,有机会在合唱比赛中夺冠,免于被废校的命运吗? #马志翔 、 #Ella陈嘉桦 领衔主演 历经12 年筹备,根据 #台湾原声童声合唱团 指挥马彼得校长 #真人实事啓发 【#听见歌再唱 】4/9 口碑献映 4/16 全台上映

◎获奖情况 (共2项)
  第23届台北电影节 (2021)
  台北电影奖 最佳编剧奖(提名)
   └──杨智麟 (id:1342701)
  台北电影奖 最佳男主角奖(提名)
   └──黄志翔 (id:1326843)

  1. ##### MediaInfo ######
  2. General
  3. Unique ID                                : 73624453039904737813972106444979295655 (0x37638DCABE4E0582A98D90B4EC0FD5A7)
  4. Complete name                            : Listen.Before.You.Sing.2021.Bluray.1080p.TrueHD5.1.x265.10bit-CTRLHD.mkv
  5. Format                                   : Matroska
  6. Format version                           : Version 4
  7. File size                                : 6.20 GiB
  8. Duration                                 : 1 h 53 min
  9. Overall bit rate mode                    : Variable
  10. Overall bit rate                         : 7 835 kb/s
  11. Encoded date                             : UTC 2022-06-03 07:05:18
  12. Writing application                      : mkvmerge v62.0.0 ('Apollo') 64-bit
  13. Writing library                          : libebml v1.4.2 + libmatroska v1.6.4
  14. Video
  15. ID                                       : 1
  16. Format                                   : HEVC
  17. Format/Info                              : High Efficiency Video Coding
  18. Format profile                           : Main 10@L4@Main
  19. Codec ID                                 : V_MPEGH/ISO/HEVC
  20. Duration                                 : 1 h 53 min
  21. Bit rate                                 : 4 995 kb/s
  22. Width                                    : 1 920 pixels
  23. Height                                   : 804 pixels
  24. Display aspect ratio                     : 2.40:1
  25. Frame rate mode                          : Constant
  26. Frame rate                               : 24.000 FPS
  27. Color space                              : YUV
  28. Chroma subsampling                       : 4:2:0
  29. Bit depth                                : 10 bits
  30. Bits/(Pixel*Frame)                       : 0.135
  31. Stream size                              : 3.95 GiB (64%)
  32. Writing library                          : x265 3.5+10-82786fccc:[Windows][MSVC 1929][64 bit] 10bit
  33. Encoding settings                        : cpuid=533541111039 / frame-threads=5 / numa-pools=36,36 / wpp / no-pmode / no-pme / no-psnr / no-ssim / log-level=2 / input-csp=1 / input-res=1920x804 / interlace=0 / total-frames=0 / level-idc=0 / high-tier=1 / uhd-bd=0 / ref=6 / no-allow-non-conformance / repeat-headers / annexb / no-aud / no-eob / no-eos / no-hrd / info / hash=0 / no-temporal-layers / no-open-gop / min-keyint=24 / keyint=250 / gop-lookahead=0 / bframes=8 / b-adapt=2 / b-pyramid / bframe-bias=0 / rc-lookahead=24 / lookahead-slices=5 / NTMzNTQ=uuDQuD2mJt9fsCf / scenecut=40 / hist-scenecut=0 / radl=0 / no-splice / no-intra-refresh / ctu=64 / min-cu-size=8 / no-rect / no-amp / max-tu-size=32 / tu-inter-depth=1 / tu-intra-depth=1 / limit-tu=0 / rdoq-level=0 / dynamic-rd=0.00 / no-ssim-rd / signhide / no-tskip / nr-intra=0 / nr-inter=0 / no-constrained-intra / no-strong-intra-smoothing / max-merge=3 / limit-refs=1 / no-limit-modes / me=2 / subme=7 / merange=48 / temporal-mvp / no-frame-dup / no-hme / weightp / weightb / no-analyze-src-pics / deblock=0:0 / sao / no-sao-non-deblock / rd=4 / selective-sao=4 / early-skip / rskip / no-fast-intra / no-tskip-fast / no-cu-lossless / b-intra / no-splitrd-skip / rdpenalty=0 / psy-rd=2.00 / psy-rdoq=0.00 / no-rd-refine / no-lossless / cbqpoffs=0 / crqpoffs=0 / rc=crf / crf=15.5 / qcomp=0.60 / qpstep=4 / stats-write=0 / stats-read=0 / ipratio=1.40 / pbratio=1.30 / aq-mode=3 / aq-strength=1.00 / cutree / zone-count=0 / no-strict-cbr / qg-size=32 / no-rc-grain / qpmax=69 / qpmin=0 / no-const-vbv / sar=0 / overscan=0 / videoformat=5 / range=0 / colorprim=2 / transfer=2 / colormatrix=2 / chromaloc=0 / display-window=0 / cll=0,0 / min-luma=0 / max-luma=1023 / log2-max-poc-lsb=8 / vui-timing-info / vui-hrd-info / slices=1 / no-opt-qp-pps / no-opt-ref-list-length-pps / no-multi-pass-opt-rps / scenecut-bias=0.05 / hist-threshold=0.03 / no-opt-cu-delta-qp / aq-motion / no-hdr10 / no-hdr10-opt / no-dhdr10-opt / no-idr-recovery-sei / analysis-reuse-level=0 / analysis-save-reuse-level=0 / analysis-load-reuse-level=0 / scale-factor=0 / refine-intra=0 / refine-inter=0 / refine-mv=1 / refine-ctu-distortion=0 / no-limit-sao / ctu-info=0 / no-lowpass-dct / refine-analysis-type=0 / copy-pic=1 / max-ausize-factor=1.0 / no-dynamic-refine / no-single-sei / no-hevc-aq / no-svt / no-field / qp-adaptation-range=1.00 / scenecut-aware-qp=0conformance-window-offsets / right=0 / bottom=0 / NTMzNTQ= / decoder-max-rate=0 / no-vbv-live-multi-pass
  34. Default                                  : Yes
  35. Forced                                   : No
  36. Audio
  37. ID                                       : 2
  38. Format                                   : MLP FBA
  39. Format/Info                              : Meridian Lossless Packing FBA
  40. Commercial name                          : Dolby TrueHD
  41. Codec ID                                 : A_TRUEHD
  42. Duration                                 : 1 h 53 min
  43. Bit rate mode                            : Variable
  44. Bit rate                                 : 2 747 kb/s
  45. Maximum bit rate                         : 4 098 kb/s
  46. Channel(s)                               : 6 channels
  47. Channel layout                           : L R C LFE Ls Rs
  48. Sampling rate                            : 96.0 kHz
  49. Frame rate                               : 1 200.000 FPS (80 SPF)
  50. Compression mode                         : Lossless
  51. Stream size                              : 2.17 GiB (35%)
  52. Language                                 : Chinese
  53. Default                                  : Yes
  54. Forced                                   : No
  55. Text #1
  56. ID                                       : 3
  57. Format                                   : PGS
  58. Muxing mode                              : zlib
  59. Codec ID                                 : S_HDMV/PGS
  60. Codec ID/Info                            : Picture based subtitle format used on BDs/HD-DVDs
  61. Duration                                 : 1 h 43 min
  62. Bit rate                                 : 34.7 kb/s
  63. Count of elements                        : 2480
  64. Stream size                              : 25.7 MiB (0%)
  65. Language                                 : Chinese
  66. Default                                  : Yes
  67. Forced                                   : No
  68. Text #2
  69. ID                                       : 4
  70. Format                                   : PGS
  71. Muxing mode                              : zlib
  72. Codec ID                                 : S_HDMV/PGS
  73. Codec ID/Info                            : Picture based subtitle format used on BDs/HD-DVDs
  74. Duration                                 : 1 h 43 min
  75. Bit rate                                 : 45.0 kb/s
  76. Count of elements                        : 2480
  77. Stream size                              : 33.4 MiB (1%)
  78. Language                                 : English
  79. Default                                  : Yes
  80. Forced                                   : No
  81. Menu
  82. 00:00:00.000                             : en:第 01 章
  83. 00:07:13.375                             : en:第 02 章
  84. 00:16:30.042                             : en:第 03 章
  85. 00:24:31.083                             : en:第 04 章
  86. 00:31:07.625                             : en:第 05 章
  87. 00:39:50.375                             : en:第 06 章
  88. 00:47:54.375                             : en:第 07 章
  89. 00:58:28.333                             : en:第 08 章
  90. 01:06:15.708                             : en:第 09 章
  91. 01:15:46.167                             : en:第 10 章
  92. 01:27:37.167                             : en:第 11 章
  93. 01:40:00.667                             : en:第 12 章
复制代码




TAGS 喜剧 音乐 /

磁力链:
  • magnet:?xt=urn:btih:6AABFB70A8FDA1E5F8EA35C29AF4EEA58C64AD9A
上传的附件:
BT9527电影天堂 1、BT9527电影天堂提供的BT文件均来源于互联网抓取,只供网友学习交流、技术提升使用。
2、我们遵守BitTorrent点对点协议原则,任何版权问题请联系原资源发布商,我们不处理任何版权纠纷,谢谢!如有争议请联系邮箱:BT9527#hotmail.com(#换成@)
3、如果您发现某页面或地址有错误,请联系站长邮箱BT9527#hotmail.com(#换成@),我们会尽快处理。您的热心是对BT9527电影天堂最大的支持。
4、本站建议去正规影院观看电影以支持电影行业发展。
最新回复 (0)

你可以在 登录 or 注册 后,对此帖发表评论!

返回
发新帖