玻璃先生[简英特效字幕].Glass.2019.BluRay.2160p.x265.10bit.HDR.2Audio-MiniHD 10.62GB

版主小s 26天前 106



◎译  名 玻璃先生 / 异能仨(港) / 异裂(台) / 分裂2 / 不死劫2 / 波利先生
◎片  名 Glass
◎年  代 2019
◎产  地 美国
◎类  别 悬疑 / 惊悚 / 犯罪
◎语  言 英语
◎上映日期 2019-01-18(美国)
◎IMDb链接 https://www.imdb.com/title/tt6823368/
◎豆瓣评分 6.5/10 (26440人评价)
◎豆瓣链接 https://movie.douban.com/subject/27031237/
◎片  长 129分钟
◎导  演 M·奈特·沙马兰 M. Night Shyamalan (id:1022570)
◎编  剧 M·奈特·沙马兰 M. Night Shyamalan (id:1022570)
◎演  员 詹姆斯·麦卡沃伊 James McAvoy (id:1006958)
       布鲁斯·威利斯 Bruce Willis (id:1010509)
       塞缪尔·杰克逊 Samuel L. Jackson (id:1054408)
       安雅·泰勒-乔伊 Anya Taylor-Joy (id:1354934)
       莎拉·保罗森 Sarah Paulson (id:1036443)
       斯宾塞·崔特·克拉克 Spencer Treat Clark (id:1027222)
       查莱宁·伍德拉德 Charlayne Woodard (id:1164810)
       卢克·柯比 Luke Kirby (id:1114638)
       亚当·大卫·汤普森 Adam David Thompson (id:1373200)
       M·奈特·沙马兰 M. Night Shyamalan (id:1022570)
       戴安娜·西尔弗斯 Diana Silvers (id:1394856)
       克里·锡安 Kyli Zion (id:1397753)
       罗素·普斯勒 Russell Posner (id:1381544)
       罗丝玛丽·霍华德 Rosemary Howard (id:1393141)
       莱斯利·史蒂芬森 Leslie Stefanson (id:1045066)
       尤基·华盛顿 Ukee Washington (id:1166612)
       布赖恩·安东尼·威尔逊 Brian Anthony Wilson (id:1161661)
       托拜厄斯·西格尔 Tobias Segal (id:1368517)
       蒂姆·杜奎特 Tim Duquette (id:1081076)
       朱塞佩·阿迪佐内 Giuseppe Ardizzone (id:1392943)
       大卫·尼尔里姆 David Kneeream (id:1206043)
       布莱恩·多纳休 Brian Donahue (id:1083068)
       奥罗拉·卡琳 Aurora Karine (id:1393136)
       迈克尔·J·克雷西克 Michael J. Kraycik (id:1248745)
       迈克尔·J·莱昂斯 Michael J. Lyons (id:1122694)
       萨曼莎·斯特芬 Samantha Steffen (id:1202226)
       莎伊娜·瑞恩 Shayna Ryan (id:1144938)
       乔恩·道格拉斯·雷尼 Jon Douglas Rainey (id:1178414)
       M·奈特·沙马兰 M. Night Shyamalan (id:1022570)
       迈克·吉奥拉基斯 Mike Gioulakis (id:1353304)
       帕科·德尔加多 Paco Delgado (id:1326166)
       克里·锡安 Kyli Zion (id:1397753)
       杨罗布 Rob Yang (id:1397751)
       简·帕克·史密斯 Jane Park Smith (id:1397752)

◎简  介
  故事讲述玻璃先生(塞缪尔·杰克逊 饰)发现大卫·杜恩(布鲁斯·威利斯 饰)正在追捕凯文·温德尔·克鲁伯(詹姆斯·麦卡沃伊 饰)的人格分裂化身之一“野兽”,而他手中则掌握对二者来说至关重要的秘密......

◎获奖情况 (共2项)
  第40届金酸莓奖 (2020)
  最差男配角(提名)
   └──布鲁斯·威利斯 (id:1010509)

  第39届伦敦影评人协会奖 (2019)
  年度英国/爱尔兰小演员(提名)
   └──安雅·泰勒-乔伊 (id:1354934)

  1. ##### MediaInfo ######
  2. General
  3. Unique ID                                : 162724672206394335960465453234419988009 (0x7A6BA1C37F17E77CC5BC64EEAD88F629)
  4. Complete name                            : Glass.2019.BluRay.2160p.x265.10bit.HDR.2Audio-MiniHD.mkv
  5. Format                                   : Matroska
  6. Format version                           : Version 4
  7. File size                                : 10.6 GiB
  8. Duration                                 : 2 h 9 min
  9. Overall bit rate mode                    : Variable
  10. Overall bit rate                         : 11.8 Mb/s
  11. Movie name                               : Glass 4K
  12. Encoded date                             : UTC 2019-04-14 17:59:49
  13. Writing application                      : mkvmerge v27.0.0 ('Metropolis') 64-bit
  14. Writing library                          : libebml v1.3.6 + libmatroska v1.4.9
  15. Cover                                    : Yes
  16. Attachments                              : cover.jpg
  17. Video
  18. ID                                       : 1
  19. Format                                   : HEVC
  20. Format/Info                              : High Efficiency Video Coding
  21. Format profile                           : Main 10@L5.1@High
  22. HDR format                               : SMPTE ST 2086, HDR10 compatible
  23. Codec ID                                 : V_MPEGH/ISO/HEVC
  24. Duration                                 : 2 h 9 min
  25. Bit rate                                 : 7 070 kb/s
  26. Width                                    : 3 840 pixels
  27. Height                                   : 1 600 pixels
  28. Display aspect ratio                     : 2.40:1
  29. Frame rate mode                          : Constant
  30. Frame rate                               : 23.976 (24000/1001/53354) FPS
  31. Color space                              : YUV
  32. Chroma subsampling                       : 4:2:0
  33. Bit depth                                : 10 bits
  34. Bits/(Pixel*Frame)                       : 0.048
  35. Stream size                              : 6.37 GiB (60%)
  36. Writing library                          : x265 3.0+2-ge71f790de+23:[Windows][GCC 8.2.1][64 bit] Yuuki 10bit
  37. Encoding settings                        : rc=crf / crf=18.0000 / qcomp=0.65 / qpstep=4 / stats-write=0 / stats-read=0 / vbv-maxrate=160000 / vbv-bufsize=160000 / vbv-init=0.9 / crf-max=0.0 / crf-min=0.0 / no-lossless / no-cu-lossless / aq-mode=1 / aq-strength=0.80 / cbqpoffs=-3 / crqpoffs=-3 / ipratio=1.40 / pbratio=1.30 / psy-rd=2.00 / psy-rdoq=5.00 / deblock=-1:-1 / ref=5 / limit-refs=1 / limit-modes / bframes=8 / b-adapt=2 / bframe-bias=0 / b-pyramid / b-intra / weightp / weightb / min-keyint=23 / max-keyint=240 / rc-lookahead=60 / gop-lookahead=0 / NTMzNTQ=uuDQuD2mJt9fsCf / scenecut=40 / radl=0 / max-cu-size=32 / min-cu-size=8 / me=3 / subme=4 / merange=25 / rdoq-level=2 / rd=4 / rdpenalty=1 / dynamic-rd=0.00 / no-rd-refine / ----- / cutree / no-sao / no-rect / no-amp / no-open-gop / wpp / pmode / pme / no-psnr / no-ssim / nr-intra=0 / nr-inter=0 / no-constrained-intra / no-strong-intra-smoothing / max-tu-size=32 / tu-inter-depth=2 / tu-intra-depth=2 / limit-tu=0 / qg-size=32 / qpmax=69 / qpmin=0 / ----- / cpuid=533541111039 / frame-threads=6 / numa-pools=54,- / log-level=2 / input-csp=1 / input-res=3840x1600 / interlace=0 / level-idc=0 / high-tier=1 / uhd-bd=0 / no-allow-non-conformance / no-repeat-headers / no-aud / hrd / info / hash=0 / no-temporal-layers / lookahead-slices=0 / no-splice / no-intra-refresh / no-ssim-rd / signhide / no-tskip / max-merge=3 / temporal-mvp / no-analyze-src-pics / no-sao-non-deblock / no-early-skip / no-rskip / no-fast-intra / no-tskip-fast / no-splitrd-skip / zone-count=0 / no-strict-cbr / no-rc-grain / no-const-vbv / sar=0 / overscan=0 / videoformat=5 / range=0 / colorprim=9 / transfer=16 / colormatrix=9 / chromaloc=0 / display-window=0 / master-display=G(13250,34500)B(7500,3000)R(34000,16000)WP(15635,16450)L(10000000,50) / max-cll=457,182 / min-luma=0 / max-luma=1023 / log2-max-poc-lsb=8 / vui-timing-info / vui-hrd-info / slices=1 / no-opt-qp-pps / no-opt-ref-list-length-pps / no-multi-pass-opt-rps / scenecut-bias=0.05 / no-opt-cu-delta-qp / no-aq-motion / hdr / hdr-opt / no-dhdr10-opt / no-idr-recovery-sei / analysis-reuse-level=5 / scale-factor=0 / refine-intra=0 / refine-inter=0 / refine-mv=0 / refine-ctu-distortion=0 / no-limit-sao / ctu-info=0 / no-lowpass-dct / refine-analysis-type=0 / copy-pic=1 / max-ausize-factor=1.0 / no-dynamic-refine / no-single-sei / no-hevc-aq / qp-adaptation-range=1.00
  38. Default                                  : Yes
  39. Forced                                   : No
  40. Color range                              : Limited
  41. Color primaries                          : BT.2020
  42. Transfer characteristics                 : PQ
  43. Matrix coefficients                      : BT.2020 non-constant
  44. Mastering display color primaries        : Display P3
  45. Mastering display luminance              : min: 0.0050 cd/m2, max: 1000 cd/m2
  46. Maximum Content Light Level              : 457 cd/m2
  47. Maximum Frame-Average Light Level        : 182 cd/m2
  48. Audio #1
  49. ID                                       : 2
  50. Format                                   : MLP FBA 16-ch
  51. Format/Info                              : Meridian Lossless Packing FBA with 16-channel presentation
  52. Commercial name                          : Dolby TrueHD with Dolby Atmos
  53. Codec ID                                 : A_TRUEHD
  54. Duration                                 : 2 h 9 min
  55. Bit rate mode                            : Variable
  56. Bit rate                                 : 4 109 kb/s
  57. Maximum bit rate                         : 7 326 kb/s
  58. Channel(s)                               : 8 channels
  59. Channel layout                           : L R C LFE Ls Rs Lb Rb
  60. Sampling rate                            : 48.0 kHz
  61. Frame rate                               : 1 200.000 FPS (40 SPF)
  62. Compression mode                         : Lossless
  63. Stream size                              : 3.70 GiB (35%)
  64. Title                                    : Atmos 7.1 4109kbps
  65. Language                                 : English
  66. Default                                  : Yes
  67. Forced                                   : No
  68. Number of dynamic objects                : 11
  69. Bed channel count                        : 1 channel
  70. Bed channel configuration                : LFE
  71. Audio #2
  72. ID                                       : 4
  73. Format                                   : AC-3
  74. Format/Info                              : Audio Coding 3
  75. Commercial name                          : Dolby Digital
  76. Codec ID                                 : A_AC3
  77. Duration                                 : 2 h 9 min
  78. Bit rate mode                            : Constant
  79. Bit rate                                 : 448 kb/s
  80. Channel(s)                               : 6 channels
  81. Channel layout                           : L R C LFE Ls Rs
  82. Sampling rate                            : 48.0 kHz
  83. Frame rate                               : 31.250 FPS (1536 SPF)
  84. Compression mode                         : Lossy
  85. Stream size                              : 413 MiB (4%)
  86. Title                                    : DD 5.1 448kbps
  87. Language                                 : English
  88. Service kind                             : Complete Main
  89. Default                                  : No
  90. Forced                                   : No
  91. Text #1
  92. ID                                       : 3
  93. Format                                   : PGS
  94. Muxing mode                              : zlib
  95. Codec ID                                 : S_HDMV/PGS
  96. Codec ID/Info                            : Picture based subtitle format used on BDs/HD-DVDs
  97. Duration                                 : 2 h 2 min
  98. Bit rate                                 : 36.1 kb/s
  99. Count of elements                        : 3130
  100. Stream size                              : 31.6 MiB (0%)
  101. Title                                    : English (SDH)
  102. Language                                 : English
  103. Default                                  : No
  104. Forced                                   : No
  105. Text #2
  106. ID                                       : 5
  107. Format                                   : PGS
  108. Muxing mode                              : zlib
  109. Codec ID                                 : S_HDMV/PGS
  110. Codec ID/Info                            : Picture based subtitle format used on BDs/HD-DVDs
  111. Duration                                 : 2 h 3 min
  112. Bit rate                                 : 68.3 kb/s
  113. Count of elements                        : 2021
  114. Stream size                              : 60.3 MiB (1%)
  115. Title                                    : 简英双语 (远鉴)
  116. Language                                 : Chinese
  117. Default                                  : No
  118. Forced                                   : No
  119. Text #3
  120. ID                                       : 6
  121. Format                                   : PGS
  122. Muxing mode                              : zlib
  123. Codec ID                                 : S_HDMV/PGS
  124. Codec ID/Info                            : Picture based subtitle format used on BDs/HD-DVDs
  125. Duration                                 : 2 h 2 min
  126. Bit rate                                 : 32.5 kb/s
  127. Count of elements                        : 3370
  128. Stream size                              : 28.5 MiB (0%)
  129. Title                                    : 简体中文特效
  130. Language                                 : Chinese
  131. Default                                  : No
  132. Forced                                   : No
  133. Text #4
  134. ID                                       : 7
  135. Format                                   : PGS
  136. Muxing mode                              : zlib
  137. Codec ID                                 : S_HDMV/PGS
  138. Codec ID/Info                            : Picture based subtitle format used on BDs/HD-DVDs
  139. Duration                                 : 2 h 2 min
  140. Bit rate                                 : 44.0 kb/s
  141. Count of elements                        : 3369
  142. Stream size                              : 38.6 MiB (0%)
  143. Title                                    : 简英双语特效
  144. Language                                 : Chinese
  145. Default                                  : Yes
  146. Forced                                   : No


TAGS 惊悚 悬疑 犯罪 /

磁力链:
  • magnet:?xt=urn:btih:B55D96F0F55A16A36801B6145ECD4DEAC7182AF6
上传的附件:
BT9527电影天堂 1、BT9527电影天堂提供的BT文件均来源于互联网抓取,只供网友学习交流、技术提升使用。
2、我们遵守BitTorrent点对点协议原则,任何版权问题请联系原资源发布商,我们不处理任何版权纠纷,谢谢!如有争议请联系邮箱:BT9527#hotmail.com(#换成@)
3、如果您发现某页面或地址有错误,请联系站长邮箱BT9527#hotmail.com(#换成@),我们会尽快处理。您的热心是对BT9527电影天堂最大的支持。
4、本站建议去正规影院观看电影以支持电影行业发展。
最新回复 (0)

你可以在 登录 or 注册 后,对此帖发表评论!

返回
发新帖