独立日2:卷土重来[国英多音轨/简繁英特效字幕].Independence.Day.Resurgence.2016.BluRay.2160p.x265.10bit.HDR.3Audio-MiniHD 23.67GB

版主小s 4月前 279



◎译  名 独立日2:卷土重来 / 独立日2 / 天煞-地球反击战2(港) / ID4星际重生(台) / 独立日2:复活 / 独立日:永恒1 / 天煞-地球反击战2 / Independence Day 2 / ID Forever Part I
◎片  名 Independence Day: Resurgence
◎年  代 2016
◎产  地 美国
◎类  别 动作 / 科幻 / 冒险
◎语  言 英语 / 汉语普通话
◎上映日期 2016-06-24(中国大陆/美国)
◎IMDb链接 https://www.imdb.com/title/tt1628841/
◎豆瓣评分 5.7/10 (114093人评价)
◎豆瓣链接 https://movie.douban.com/subject/4811813/
◎片  长 120分钟
◎导  演 罗兰·艾默里奇 Roland Emmerich (id:1040593)
◎编  剧 罗兰·艾默里奇 Roland Emmerich (id:1040593)
       迪安·德夫林 Dean Devlin (id:1050031)
       尼古拉斯·莱特 Nicolas Wright (id:1314296)
       詹姆斯·A·伍兹 James A. Woods (id:1214609)
       詹姆斯·范德比尔特 James Vanderbilt (id:1321383)
       卡特·布兰查德 Carter Blanchard (id:1353406)
◎演  员 利亚姆·海姆斯沃斯 Liam Hemsworth (id:1012478)
       杰夫·高布伦 Jeff Goldblum (id:1025109)
       麦卡·梦露 Maika Monroe (id:1334593)
       杰西·厄舍 Jessie Usher (id:1199074)
       比尔·普尔曼 Bill Pullman (id:1036384)
       夏洛特·甘斯布 Charlotte Gainsbourg (id:1054522)
       特拉维斯·托普 Travis Tope (id:1344575)
       杨颖 Angelababy (id:1033011)
       雪拉·渥德 Sela Ward (id:1010583)
       威廉·菲克纳 William Fichtner (id:1036360)
       贾德·赫希 Judd Hirsch (id:1055274)
       布伦特·斯皮内 Brent Spiner (id:1007012)
       乔伊·金 Joey King (id:1022713)
       薇薇卡·福克斯 Vivica A. Fox (id:1025223)
       麦肯娜·格瑞丝 Mckenna Grace (id:1340538)
       道比·欧帕瑞 Deobia Oparei (id:1326517)
       袁文忠 Ron Yuan (id:1032226)
       史蒂芬·布莱克史密斯 Steven Blacksmith (id:1230017)
       贝丝·贝利 Beth Bailey (id:1322824)
       黄芝琪 Grace Huang (id:1323456)
       凯茜·梅瑟 Casey Messer (id:1257747)
       Ivan G'Vera Ivan G'Vera (id:1088859)
       约翰·斯托里 John Storey (id:1367781)
       赵路 Lu Zhao (id:1349631)
       斯塔福德·道格拉斯 Stafford Douglas (id:1340555)
       瑞恩·卡特赖特 Ryan Cartwright (id:1077777)
       乔尔·维里格尔 Joel Virgel (id:1321920)
       约书亚·米克尔 Joshua Mikel (id:1355629)
       海斯·威尔弗德 Hays Wellford (id:1356604)
       加勒特·沃灵 Garrett Wareing (id:1350780)
       罗伯特·劳吉亚 Robert Loggia (id:1013914)
       格本加·阿金纳格贝 Gbenga Akinnagbe (id:1190738)
       帕特里克·圣埃斯普利特 Patrick St. Esprit (id:1336036)
       泽博·桑德斯 Zeb Sanders (id:1359261)
       黄经汉 Chin Han (id:1036774)
       罗兰·艾默里奇 Roland Emmerich (id:1040593)
       哈洛德·克卢瑟 Harald Kloser (id:1009834)
       托马斯·旺克 Thomas Wanker (id:1001141)
       马库斯·福德勒 Markus F?rderer (id:1443248)
       瑞恩·艾伦 Ryan Allen (id:1247853)
       劳伦·麦卡勒姆 Lauren McCallum (id:1416840)
       埃蒙·巴特勒 Eamonn Butler (id:1279748)
       卡洛斯·华达德 Carlos Ciudad (id:1414095)
       杰西卡卡林顿 Jessica Carrington (id:1404965)
       瑞秋·劳伦森 Rachel Laurenson (id:1414103)
       简·菲利普·克雷默 Jan Philip Cramer (id:1414096)

◎简  介
  经历过外星人大举入侵地球后,人类知道,这些入侵者有一天一定会再回来。人类运用先前外星人所遗留下来的科技文明,发展出一套强大的地球防御系统以抵御外星人的再度入侵。然而,20年后,这些外星人却带着人类前所未见、更先进强大的武力再次入侵地球,带来更大的全球灾难,几位勇敢的年轻人,他们挺身而出,将再一次为人类生存而战斗……

◎获奖情况 (共6项)
  第37届金酸莓奖 (2017)
  最差影片(提名)
  最差女配角
   └──雪拉·渥德 (id:1010583)
  最差导演(提名)
   └──罗兰·艾默里奇 (id:1040593)
  最差剧本(提名)
  最差前传、重拍、恶搞及续集电影(提名)

  第3届豆瓣电影年度榜单 (2016)
  6月最受关注电影(提名)

  1. ##### MediaInfo ######
  2. General
  3. Unique ID                                : 82314240892576604733975906342574510206 (0x3DED2569545EFED33699D0C80E08507E)
  4. Complete name                            : Independence.Day.Resurgence.2016.BluRay.2160p.x265.10bit.HDR.3Audio-MiniHD.mkv
  5. Format                                   : Matroska
  6. Format version                           : Version 4
  7. File size                                : 23.7 GiB
  8. Duration                                 : 1 h 59 min
  9. Overall bit rate mode                    : Variable
  10. Overall bit rate                         : 28.3 Mb/s
  11. Encoded date                             : UTC 2018-05-23 10:55:45
  12. Writing application                      : mkvmerge v20.0.0 ('I Am The Sun') 32-bit
  13. Writing library                          : libebml v1.3.5 + libmatroska v1.4.8
  14. Video
  15. ID                                       : 1
  16. Format                                   : HEVC
  17. Format/Info                              : High Efficiency Video Coding
  18. Format profile                           : Main 10@L5.1@High
  19. HDR format                               : SMPTE ST 2086, HDR10 compatible
  20. Codec ID                                 : V_MPEGH/ISO/HEVC
  21. Duration                                 : 1 h 59 min
  22. Bit rate                                 : 19.3 Mb/s
  23. Width                                    : 3 840 pixels
  24. Height                                   : 1 604 pixels
  25. Display aspect ratio                     : 2.40:1
  26. Frame rate mode                          : Constant
  27. Frame rate                               : 23.976 (24000/1001/53354) FPS
  28. Color space                              : YUV
  29. Chroma subsampling                       : 4:2:0 (Type 2)
  30. Bit depth                                : 10 bits
  31. Bits/(Pixel*Frame)                       : 0.130
  32. Stream size                              : 16.1 GiB (68%)
  33. Writing library                          : x265 2.7+1-2aa737a99f51:[Windows][GCC 7.3.0][64 bit] 10bit
  34. Encoding settings                        : cpuid=533541173503 / frame-threads=8 / numa-pools=32,32 / wpp / no-pmode / no-pme / no-psnr / no-ssim / log-level=2 / input-csp=1 / input-res=3840x1604 / interlace=0 / total-frames=0 / level-idc=51 / high-tier=1 / uhd-bd=0 / ref=5 / no-allow-non-conformance / repeat-headers / annexb / aud / hrd / info / hash=0 / no-temporal-layers / no-open-gop / min-keyint=1 / keyint=360 / gop-lookahead=0 / bframes=9 / b-adapt=2 / b-pyramid / bframe-bias=0 / rc-lookahead=48 / lookahead-slices=4 / NTMzNTQ=uuDQuD2mJt9fsCf / scenecut=40 / radl=0 / no-intra-refresh / ctu=32 / min-cu-size=8 / no-rect / no-amp / max-tu-size=32 / tu-inter-depth=2 / tu-intra-depth=2 / limit-tu=4 / rdoq-level=1 / dynamic-rd=0.00 / no-ssim-rd / signhide / no-tskip / nr-intra=0 / nr-inter=0 / no-constrained-intra / no-strong-intra-smoothing / max-merge=3 / limit-refs=2 / limit-modes / me=3 / subme=5 / merange=25 / temporal-mvp / weightp / weightb / no-analyze-src-pics / deblock=-1:-1 / no-sao / no-sao-non-deblock / rd=4 / no-early-skip / no-rskip / no-fast-intra / no-tskip-fast / no-cu-lossless / b-intra / no-splitrd-skip / rdpenalty=1 / psy-rd=2.00 / psy-rdoq=5.00 / no-rd-refine / no-lossless / cbqpoffs=-3 / crqpoffs=-3 / rc=crf / crf=18.0 / qcomp=0.70 / qpstep=4 / stats-write=0 / stats-read=0 / vbv-maxrate=120000 / vbv-bufsize=120000 / vbv-init=0.9 / crf-max=0.0 / crf-min=0.0 / ipratio=1.40 / pbratio=1.30 / aq-mode=3 / aq-strength=0.80 / cutree / zone-count=0 / no-strict-cbr / qg-size=32 / no-rc-grain / qpmax=69 / qpmin=0 / no-const-vbv / sar=1 / overscan=0 / videoformat=5 / range=0 / colorprim=9 / transfer=16 / colormatrix=9 / chromaloc=1 / chromaloc-top=2 / chromaloc-bottom=2 / display-window=0 / master-display=G(13250,34500)B(7500,3000)R(34000,16000)WP(15635,16450)L(10000000,0) / max-cll=0,0 / min-luma=0 / max-luma=1023 / log2-max-poc-lsb=8 / vui-timing-info / vui-hrd-info / slices=1 / no-opt-qp-pps / no-opt-ref-list-length-pps / no-multi-pass-opt-rps / scenecut-bias=0.05 / no-opt-cu-delta-qp / no-aq-motion / hdr / hdr-opt / no-dhdr10-opt / analysis-reuse-level=5 / scale-factor=0 / refine-intra=0 / refine-inter=0 / refine-mv=0 / no-limit-sao / ctu-info=0 / no-lowpass-dct / refine-mv-type=0 / copy-pic=1
  35. Default                                  : Yes
  36. Forced                                   : No
  37. Color range                              : Limited
  38. Color primaries                          : BT.2020
  39. Transfer characteristics                 : PQ
  40. Matrix coefficients                      : BT.2020 non-constant
  41. Mastering display color primaries        : Display P3
  42. Mastering display luminance              : min: 0.0000 cd/m2, max: 1000 cd/m2
  43. Audio #1
  44. ID                                       : 2
  45. Format                                   : MLP FBA 16-ch
  46. Format/Info                              : Meridian Lossless Packing FBA with 16-channel presentation
  47. Commercial name                          : Dolby TrueHD with Dolby Atmos
  48. Codec ID                                 : A_TRUEHD
  49. Duration                                 : 1 h 59 min
  50. Bit rate mode                            : Variable
  51. Bit rate                                 : 5 559 kb/s
  52. Maximum bit rate                         : 8 922 kb/s
  53. Channel(s)                               : 8 channels
  54. Channel layout                           : L R C LFE Ls Rs Lb Rb
  55. Sampling rate                            : 48.0 kHz
  56. Frame rate                               : 1 200.000 FPS (40 SPF)
  57. Compression mode                         : Lossless
  58. Delay relative to video                  : 27 ms
  59. Stream size                              : 4.65 GiB (20%)
  60. Title                                    : 英语全景声
  61. Language                                 : English
  62. Default                                  : Yes
  63. Forced                                   : No
  64. Number of dynamic objects                : 13
  65. Bed channel count                        : 1 channel
  66. Bed channel configuration                : LFE
  67. Audio #2
  68. ID                                       : 3
  69. Format                                   : AC-3
  70. Format/Info                              : Audio Coding 3
  71. Commercial name                          : Dolby Digital
  72. Codec ID                                 : A_AC3
  73. Duration                                 : 1 h 59 min
  74. Bit rate mode                            : Constant
  75. Bit rate                                 : 640 kb/s
  76. Channel(s)                               : 6 channels
  77. Channel layout                           : L R C LFE Ls Rs
  78. Sampling rate                            : 48.0 kHz
  79. Frame rate                               : 31.250 FPS (1536 SPF)
  80. Compression mode                         : Lossy
  81. Delay relative to video                  : 27 ms
  82. Stream size                              : 548 MiB (2%)
  83. Title                                    : 英语
  84. Language                                 : English
  85. Service kind                             : Complete Main
  86. Default                                  : No
  87. Forced                                   : No
  88. Audio #3
  89. ID                                       : 4
  90. Format                                   : DTS XLL
  91. Format/Info                              : Digital Theater Systems
  92. Commercial name                          : DTS-HD Master Audio
  93. Codec ID                                 : A_DTS
  94. Duration                                 : 1 h 59 min
  95. Bit rate mode                            : Variable
  96. Bit rate                                 : 2 594 kb/s
  97. Channel(s)                               : 8 channels
  98. Channel layout                           : C L R LFE Lb Rb Lss Rss
  99. Sampling rate                            : 48.0 kHz
  100. Frame rate                               : 93.750 FPS (512 SPF)
  101. Bit depth                                : 16 bits
  102. Compression mode                         : Lossless
  103. Stream size                              : 2.17 GiB (9%)
  104. Title                                    : 国语DTSHD
  105. Language                                 : Chinese
  106. Default                                  : No
  107. Forced                                   : No
  108. Text #1
  109. ID                                       : 5
  110. Format                                   : PGS
  111. Muxing mode                              : zlib
  112. Codec ID                                 : S_HDMV/PGS
  113. Codec ID/Info                            : Picture based subtitle format used on BDs/HD-DVDs
  114. Duration                                 : 1 h 49 min
  115. Bit rate                                 : 49.5 kb/s
  116. Count of elements                        : 4316
  117. Stream size                              : 38.8 MiB (0%)
  118. Title                                    : 英文
  119. Language                                 : English
  120. Default                                  : Yes
  121. Forced                                   : No
  122. Text #2
  123. ID                                       : 6
  124. Format                                   : PGS
  125. Muxing mode                              : zlib
  126. Codec ID                                 : S_HDMV/PGS
  127. Codec ID/Info                            : Picture based subtitle format used on BDs/HD-DVDs
  128. Duration                                 : 1 h 58 min
  129. Bit rate                                 : 24.6 kb/s
  130. Count of elements                        : 3462
  131. Stream size                              : 20.9 MiB (0%)
  132. Title                                    : 原盘中文繁体-HK
  133. Language                                 : Chinese
  134. Default                                  : No
  135. Forced                                   : No
  136. Text #3
  137. ID                                       : 7
  138. Format                                   : PGS
  139. Muxing mode                              : zlib
  140. Codec ID                                 : S_HDMV/PGS
  141. Codec ID/Info                            : Picture based subtitle format used on BDs/HD-DVDs
  142. Duration                                 : 1 h 58 min
  143. Bit rate                                 : 26.4 kb/s
  144. Count of elements                        : 3454
  145. Stream size                              : 22.5 MiB (0%)
  146. Title                                    : 原盘中文繁体-TW
  147. Language                                 : Chinese
  148. Default                                  : No
  149. Forced                                   : No
  150. Text #4
  151. ID                                       : 8
  152. Format                                   : PGS
  153. Muxing mode                              : zlib
  154. Codec ID                                 : S_HDMV/PGS
  155. Codec ID/Info                            : Picture based subtitle format used on BDs/HD-DVDs
  156. Duration                                 : 1 h 52 min
  157. Bit rate                                 : 167 kb/s
  158. Count of elements                        : 6489
  159. Stream size                              : 135 MiB (1%)
  160. Title                                    : 简英双语特效
  161. Language                                 : Chinese
  162. Default                                  : No
  163. Forced                                   : No
  164. Text #5
  165. ID                                       : 9
  166. Format                                   : PGS
  167. Muxing mode                              : zlib
  168. Codec ID                                 : S_HDMV/PGS
  169. Codec ID/Info                            : Picture based subtitle format used on BDs/HD-DVDs
  170. Duration                                 : 1 h 52 min
  171. Bit rate                                 : 101 kb/s
  172. Count of elements                        : 7524
  173. Stream size                              : 81.8 MiB (0%)
  174. Title                                    : 国配简体特效
  175. Language                                 : Chinese
  176. Default                                  : No
  177. Forced                                   : No
  178. Menu
  179. 00:00:00.000                             : en:Chapter 01
  180. 00:05:37.337                             : en:Chapter 02
  181. 00:09:15.471                             : en:Chapter 03
  182. 00:14:06.720                             : en:Chapter 04
  183. 00:19:40.470                             : en:Chapter 05
  184. 00:22:59.002                             : en:Chapter 06
  185. 00:27:10.253                             : en:Chapter 07
  186. 00:31:37.645                             : en:Chapter 08
  187. 00:39:11.974                             : en:Chapter 09
  188. 00:43:41.118                             : en:Chapter 10
  189. 00:47:46.613                             : en:Chapter 11
  190. 00:52:32.190                             : en:Chapter 12
  191. 00:59:10.255                             : en:Chapter 13
  192. 01:02:00.133                             : en:Chapter 14
  193. 01:07:12.069                             : en:Chapter 15
  194. 01:09:54.815                             : en:Chapter 16
  195. 01:13:11.720                             : en:Chapter 17
  196. 01:18:27.452                             : en:Chapter 18
  197. 01:22:45.502                             : en:Chapter 19
  198. 01:27:51.808                             : en:Chapter 20
  199. 01:32:36.717                             : en:Chapter 21
  200. 01:39:38.138                             : en:Chapter 22
  201. 01:47:20.142                             : en:Chapter 23
  202. 01:50:36.713                             : en:Chapter 24
复制代码




TAGS 动作 冒险 科幻 /

磁力链:
  • magnet:?xt=urn:btih:1668D934AF6154CE598E0CE71DDFEA08204EA67D
上传的附件:
BT9527电影天堂 1、BT9527电影天堂提供的BT文件均来源于互联网抓取,只供网友学习交流、技术提升使用。
2、我们遵守BitTorrent点对点协议原则,任何版权问题请联系原资源发布商,我们不处理任何版权纠纷,谢谢!如有争议请联系邮箱:BT9527#hotmail.com(#换成@)
3、如果您发现某页面或地址有错误,请联系站长邮箱BT9527#hotmail.com(#换成@),我们会尽快处理。您的热心是对BT9527电影天堂最大的支持。
4、本站建议去正规影院观看电影以支持电影行业发展。
最新回复 (0)

你可以在 登录 or 注册 后,对此帖发表评论!

返回
发新帖