爱国者游戏[国英多音轨/简繁英字幕].Patriot.Games.1992.BluRay.2160p.x265.10bit.HDR.4Audios-MiniHD 16.49GB

版主小s 26天前 89



◎译  名 爱国者游戏 / 天网追击
◎片  名 Patriot Games
◎年  代 1992
◎产  地 美国
◎类  别 剧情 / 动作 / 惊悚 / 犯罪
◎语  言 英语
◎上映日期 1992-06-05(美国)
◎IMDb链接 https://www.imdb.com/title/tt0105112/
◎豆瓣评分 6.7/10 (5400人评价)
◎豆瓣链接 https://movie.douban.com/subject/1294559/
◎片  长 117分钟
◎导  演 菲利普·诺伊斯 Phillip Noyce (id:1045031)
◎编  剧 汤姆·克兰西 Tom Clancy (id:1055015)
       W·彼得·伊利夫 W. Peter Iliff (id:1324299)
       唐纳德·斯图尔特 Donald Stewart (id:1006001)
◎演  员 哈里森·福特 Harrison Ford (id:1009238)
       安妮·阿彻 Anne Archer (id:1049622)
       肖恩·宾 Sean Bean (id:1002683)
       帕特里克·博金 Patrick Bergin (id:1007082)
       索拉·伯奇 Thora Birch (id:1031804)
       詹姆斯·福克斯 James Fox (id:1080877)
       塞缪尔·杰克逊 Samuel L. Jackson (id:1054408)
       波利·沃克 Polly Walker (id:1044939)
       J·E·弗里曼 J.E. Freeman (id:1087142)
       詹姆斯·厄尔·琼斯 James Earl Jones (id:1013800)
       理查德·哈里斯 Richard Harris (id:1027172)
       亚力克斯·诺顿 Alex Norton (id:1007169)
       休·弗拉瑟 Hugh Fraser (id:1080762)
       大卫·斯瑞弗 David Threlfall (id:1027449)
       艾伦·阿姆斯特朗 Alun Armstrong (id:1010692)
       贝琳达·托尔伯特 Berlinda Tolbert (id:1157886)
       休·罗斯 Hugh Ross (id:1379595)
       杰拉尔·德西姆 Gerald Sim (id:1146354)
       皮普·托伦斯 Pip Torrens (id:1336328)
       乔纳森·瑞安 Jonathan Ryan (id:1438530)
       Karl Hayden Karl Hayden (id:1092380)
       汤姆·瓦特 Tom Watt (id:1167551)
       P.H.莫里亚蒂 P.H. Moriarty (id:1136911)
       蒂姆·达顿 Tim Dutton (id:1421516)
       艾伦·戈尔 Ellen Geer (id:1098536)
       肖恩·杜克 Shaun Duke (id:1135460)
       Fritz Sperberg Fritz Sperberg (id:1152160)
       泰德·雷米 Ted Raimi (id:1036535)
       约翰·谢泼德 John Shepard (id:1145412)
       鲍勃·冈顿 Bob Gunton (id:1041179)
       基思·坎贝尔 Keith Campbell (id:1070981)
       Jeff Gardner Jeff Gardner (id:1011294)
       鲁本·加菲亚斯 Ruben Garfias (id:1341891)
       罗伊·贝克 Roy Beck (id:1373101)
       萨沙·本奈特 Sacha Bennett (id:1045596)
       Bret Culpepper Bret Culpepper (id:1074760)
       Lucia Noyce Lucia Noyce (id:1201104)
       Gary Rodriguez Gary Rodriguez (id:1145032)
       唐纳德·麦卡尔平 Donald McAlpine (id:1276558)
       尼尔·特拉维斯 Neil Travis (id:1299480)
       凯茜·桑德里奇 Cathy Sandrich (id:1296638)
       Amanda Mackey Johnson Amanda Mackey Johnson (id:1290650)
       约瑟夫·C·内梅克三世 Joseph C. Nemec III (id:1293045)
       约翰·M·德维尔 John M. Dwyer (id:1282892)
       Norma Moriceau Norma Moriceau (id:1292511)
       彼得·罗勃-金 Peter Robb-King (id:1295741)
       Pat Gerhardt Pat Gerhardt (id:1284738)
       安妮·摩根 Anne Morgan (id:1292487)
       大卫·R·艾里斯 David R. Ellis (id:1050082)
       Dennis Maguire Dennis Maguire (id:1290727)
       理查德·E·霍兰德尔 Richard E. Hollander (id:1286808)
       拉塞尔·厄尔 Russell Earl (id:1282937)
       Rhonda C. Gunner Rhonda C. Gunner (id:1285640)

◎简  介
  杰克(哈里森·福特 Harrison Ford 饰)曾是中情局的一名情报员,在一次度假中,他偶然目睹了一场以北爱尔兰国务大臣霍姆斯(詹姆斯·福克斯 James Fox 饰)为目标的恐怖活动,职业习惯让他无法对此坐视不管,在杰克的协助下,恐怖份子米勒(肖恩·宾 Sean Bean 饰)被捉拿归案,杰克也得到了赢得的奖赏。                                    
                                虽然行动失败了,但恐怖分子们并没就就此罢休,而是决定再干一票,此时已经越狱成功的米勒主动请缨加入行动,他的脑中只有一个念头,那就是向杰克寻仇。很快,敏感的杰克就发现自己和家人正处于极度危险之中,为了捍卫国家和平,更为了保护自己的家人,杰克回到中情局,重操旧业。

  1. ##### MediaInfo ######
  2. General
  3. Unique ID                                : 11059798781756356517959593426315372894 (0x8520A2E0E7E73C4F7B1A1DE77C7E95E)
  4. Complete name                            : Patriot.Games.1992.BluRay.2160p.x265.10bit.HDR.4Audios-MiniHD.mkv
  5. Format                                   : Matroska
  6. Format version                           : Version 4
  7. File size                                : 16.5 GiB
  8. Duration                                 : 1 h 56 min
  9. Overall bit rate mode                    : Variable
  10. Overall bit rate                         : 20.2 Mb/s
  11. Encoded date                             : UTC 2018-08-28 06:05:53
  12. Writing application                      : mkvmerge v20.0.0 ('I Am The Sun') 64-bit
  13. Writing library                          : libebml v1.3.5 + libmatroska v1.4.8
  14. Video
  15. ID                                       : 1
  16. Format                                   : HEVC
  17. Format/Info                              : High Efficiency Video Coding
  18. Format profile                           : Main 10@L5.1@High
  19. Codec ID                                 : V_MPEGH/ISO/HEVC
  20. Duration                                 : 1 h 56 min
  21. Bit rate                                 : 15.2 Mb/s
  22. Width                                    : 3 840 pixels
  23. Height                                   : 1 604 pixels
  24. Display aspect ratio                     : 2.40:1
  25. Frame rate mode                          : Constant
  26. Frame rate                               : 23.976 (24000/1001/53354) FPS
  27. Color space                              : YUV
  28. Chroma subsampling                       : 4:2:0
  29. Bit depth                                : 10 bits
  30. Bits/(Pixel*Frame)                       : 0.103
  31. Stream size                              : 12.4 GiB (75%)
  32. Default                                  : Yes
  33. Forced                                   : No
  34. Color range                              : Limited
  35. Color primaries                          : BT.2020
  36. Transfer characteristics                 : PQ
  37. Matrix coefficients                      : BT.2020 non-constant
  38. Audio #1
  39. ID                                       : 2
  40. Format                                   : MLP FBA
  41. Format/Info                              : Meridian Lossless Packing FBA
  42. Commercial name                          : Dolby TrueHD
  43. Codec ID                                 : A_TRUEHD
  44. Duration                                 : 1 h 56 min
  45. Bit rate mode                            : Variable
  46. Bit rate                                 : 3 612 kb/s
  47. Maximum bit rate                         : 4 860 kb/s
  48. Channel(s)                               : 6 channels
  49. Channel layout                           : L R C LFE Ls Rs
  50. Sampling rate                            : 48.0 kHz
  51. Frame rate                               : 1 200.000 FPS (40 SPF)
  52. Compression mode                         : Lossless
  53. Stream size                              : 2.94 GiB (18%)
  54. Title                                    : 英语TrueHD
  55. Language                                 : English
  56. Default                                  : Yes
  57. Forced                                   : No
  58. Audio #2
  59. ID                                       : 3
  60. Format                                   : AC-3
  61. Format/Info                              : Audio Coding 3
  62. Commercial name                          : Dolby Digital
  63. Codec ID                                 : A_AC3
  64. Duration                                 : 1 h 56 min
  65. Bit rate mode                            : Constant
  66. Bit rate                                 : 640 kb/s
  67. Channel(s)                               : 6 channels
  68. Channel layout                           : L R C LFE Ls Rs
  69. Sampling rate                            : 48.0 kHz
  70. Frame rate                               : 31.250 FPS (1536 SPF)
  71. Compression mode                         : Lossy
  72. Delay relative to video                  : 24 ms
  73. Stream size                              : 534 MiB (3%)
  74. Title                                    : 英语AC-3
  75. Language                                 : English
  76. Service kind                             : Complete Main
  77. Default                                  : No
  78. Forced                                   : No
  79. Audio #3
  80. ID                                       : 4
  81. Format                                   : AC-3
  82. Format/Info                              : Audio Coding 3
  83. Commercial name                          : Dolby Digital
  84. Codec ID                                 : A_AC3
  85. Duration                                 : 1 h 56 min
  86. Bit rate mode                            : Constant
  87. Bit rate                                 : 448 kb/s
  88. Channel(s)                               : 6 channels
  89. Channel layout                           : L R C LFE Ls Rs
  90. Sampling rate                            : 48.0 kHz
  91. Frame rate                               : 31.250 FPS (1536 SPF)
  92. Compression mode                         : Lossy
  93. Stream size                              : 374 MiB (2%)
  94. Title                                    : 京译国语
  95. Language                                 : Chinese
  96. Service kind                             : Complete Main
  97. Default                                  : No
  98. Forced                                   : No
  99. Audio #4
  100. ID                                       : 5
  101. Format                                   : AC-3
  102. Format/Info                              : Audio Coding 3
  103. Commercial name                          : Dolby Digital
  104. Codec ID                                 : A_AC3
  105. Duration                                 : 1 h 56 min
  106. Bit rate mode                            : Constant
  107. Bit rate                                 : 256 kb/s
  108. Channel(s)                               : 2 channels
  109. Channel layout                           : L R
  110. Sampling rate                            : 48.0 kHz
  111. Frame rate                               : 31.250 FPS (1536 SPF)
  112. Compression mode                         : Lossy
  113. Delay relative to video                  : 24 ms
  114. Stream size                              : 214 MiB (1%)
  115. Title                                    : 央视国语
  116. Language                                 : Chinese
  117. Service kind                             : Complete Main
  118. Default                                  : No
  119. Forced                                   : No
  120. Text #1
  121. ID                                       : 6
  122. Format                                   : PGS
  123. Muxing mode                              : zlib
  124. Codec ID                                 : S_HDMV/PGS
  125. Codec ID/Info                            : Picture based subtitle format used on BDs/HD-DVDs
  126. Duration                                 : 1 h 52 min
  127. Bit rate                                 : 17.7 kb/s
  128. Count of elements                        : 2131
  129. Stream size                              : 14.3 MiB (0%)
  130. Title                                    : 央视国配简中
  131. Language                                 : Chinese
  132. Default                                  : Yes
  133. Forced                                   : No
  134. Text #2
  135. ID                                       : 7
  136. Format                                   : PGS
  137. Muxing mode                              : zlib
  138. Codec ID                                 : S_HDMV/PGS
  139. Codec ID/Info                            : Picture based subtitle format used on BDs/HD-DVDs
  140. Duration                                 : 1 h 52 min
  141. Bit rate                                 : 23.5 kb/s
  142. Count of elements                        : 1194
  143. Stream size                              : 18.9 MiB (0%)
  144. Title                                    : 简英双语
  145. Language                                 : Chinese
  146. Default                                  : No
  147. Forced                                   : No
  148. Text #3
  149. ID                                       : 8
  150. Format                                   : PGS
  151. Muxing mode                              : zlib
  152. Codec ID                                 : S_HDMV/PGS
  153. Codec ID/Info                            : Picture based subtitle format used on BDs/HD-DVDs
  154. Duration                                 : 1 h 52 min
  155. Bit rate                                 : 22.7 kb/s
  156. Count of elements                        : 2171
  157. Stream size                              : 18.2 MiB (0%)
  158. Title                                    : UHD原盘繁体-HK
  159. Language                                 : Chinese
  160. Default                                  : No
  161. Forced                                   : No
  162. Text #4
  163. ID                                       : 9
  164. Format                                   : PGS
  165. Muxing mode                              : zlib
  166. Codec ID                                 : S_HDMV/PGS
  167. Codec ID/Info                            : Picture based subtitle format used on BDs/HD-DVDs
  168. Duration                                 : 1 h 52 min
  169. Bit rate                                 : 20.1 kb/s
  170. Count of elements                        : 2151
  171. Stream size                              : 16.1 MiB (0%)
  172. Title                                    : UHD原盘繁体-TW
  173. Language                                 : Chinese
  174. Default                                  : No
  175. Forced                                   : No
  176. Text #5
  177. ID                                       : 10
  178. Format                                   : PGS
  179. Muxing mode                              : zlib
  180. Codec ID                                 : S_HDMV/PGS
  181. Codec ID/Info                            : Picture based subtitle format used on BDs/HD-DVDs
  182. Duration                                 : 1 h 49 min
  183. Bit rate                                 : 26.9 kb/s
  184. Count of elements                        : 2396
  185. Stream size                              : 21.1 MiB (0%)
  186. Title                                    : 英文
  187. Language                                 : English
  188. Default                                  : No
  189. Forced                                   : No
  190. Menu
  191. 00:00:00.000                             : en:Chapter 01
  192. 00:02:36.447                             : en:Chapter 02
  193. 00:05:47.721                             : en:Chapter 03
  194. 00:11:47.038                             : en:Chapter 04
  195. 00:13:28.557                             : en:Chapter 05
  196. 00:19:57.194                             : en:Chapter 06
  197. 00:24:59.873                             : en:Chapter 07
  198. 00:27:54.297                             : en:Chapter 08
  199. 00:33:56.491                             : en:Chapter 09
  200. 00:38:00.734                             : en:Chapter 10
  201. 00:40:04.274                             : en:Chapter 11
  202. 00:51:17.323                             : en:Chapter 12
  203. 00:57:09.341                             : en:Chapter 13
  204. 01:04:10.095                             : en:Chapter 14
  205. 01:10:52.081                             : en:Chapter 15
  206. 01:15:46.832                             : en:Chapter 16
  207. 01:19:18.127                             : en:Chapter 17
  208. 01:27:10.432                             : en:Chapter 18
  209. 01:31:42.662                             : en:Chapter 19
  210. 01:44:04.904                             : en:Chapter 20
  211. 01:51:14.501                             : en:Chapter 21
  212. 01:52:45.175                             : en:Chapter 22
复制代码




TAGS 动作 剧情 惊悚 犯罪 /

磁力链:
  • magnet:?xt=urn:btih:C8F503A54160EB4C890BF0B2CBDB15C5BBFB3035
上传的附件:
BT9527电影天堂 1、BT9527电影天堂提供的BT文件均来源于互联网抓取,只供网友学习交流、技术提升使用。
2、我们遵守BitTorrent点对点协议原则,任何版权问题请联系原资源发布商,我们不处理任何版权纠纷,谢谢!如有争议请联系邮箱:BT9527#hotmail.com(#换成@)
3、如果您发现某页面或地址有错误,请联系站长邮箱BT9527#hotmail.com(#换成@),我们会尽快处理。您的热心是对BT9527电影天堂最大的支持。
4、本站建议去正规影院观看电影以支持电影行业发展。
最新回复 (0)

你可以在 登录 or 注册 后,对此帖发表评论!

返回
发新帖