爱国者[国英多音轨/简繁英字幕].The.Patriot.2000.Bluray.2160p.x265.10bit.HDR.3Audio-MiniHD 27.55GB

版主小s 4月前 249



◎译  名 爱国者 / 孤军雄心(港) / 决战时刻(台)
◎片  名 The Patriot
◎年  代 2000
◎产  地 美国 / 德国
◎类  别 剧情 / 动作 / 战争
◎语  言 英语
◎上映日期 2000-06-28(美国)
◎IMDb链接 https://www.imdb.com/title/tt0187393/
◎豆瓣评分 8.1/10 (34415人评价)
◎豆瓣链接 https://movie.douban.com/subject/1293934/
◎片  长 165分钟
◎导  演 罗兰·艾默里奇 Roland Emmerich (id:1040593)
◎编  剧 罗伯特·罗达特 Robert Rodat (id:1295862)
◎演  员 梅尔·吉布森 Mel Gibson (id:1054530)
       希斯·莱杰 Heath Ledger (id:1006957)
       乔莉·理查德森 Joely Richardson (id:1013795)
       詹森·艾萨克 Jason Isaacs (id:1017916)
       克里斯·库珀 Chris Cooper (id:1009288)
       丽莎·布瑞纳 Lisa Brenner (id:1054706)
       汤姆·威尔金森 Tom Wilkinson (id:1036397)
       罗根·勒曼 Logan Lerman (id:1053583)
       帕特里克·塔特普洛斯 Patrick Tatopoulos (id:1298949)
       特拉沃·摩根 Trevor Morgan (id:1036489)
       丝凯·麦柯·巴楚沙 Skye McCole Bartusiak (id:1027296)
       Matthew Mebane Matthew Mebane (id:1303897)
       切基·卡尤 Tchéky Karyo (id:1027887)
       皮特·伍德瓦德 Peter Woodward (id:1004886)
       罗兰·艾默里奇 Roland Emmerich (id:1040593)
       加里·莱温索恩 Gary Levinsohn (id:1289901)
       彼得·温瑟 Peter Winther (id:1411767)
       约翰·威廉姆斯 John Williams (id:1054692)
       大卫·布伦纳 David Brenner (id:1279253)
       Julie Monroe Julie Monroe (id:1292348)
       四月·韦伯斯特 April Webster (id:1300568)
       David Bloch David Bloch (id:1276414)
       Barry Chusid Barry Chusid (id:1280793)
       维克多·J·佐尔福 Victor J. Zolfo (id:1301778)
       德博拉·林恩·斯科特 Deborah Lynn Scott (id:1297071)
       帕蒂·约克 Patty York (id:1301508)
       凯·乔治奥 Kay Georgiou (id:1284721)
       温迪·贝尔 Wendy Bell (id:1278278)
       开尔文·特拉罕 Kelvin R. Trahan (id:1299467)
       托马斯·内伦 Thomas Nellen (id:1293018)
       Geraldine Jones Geraldine Jones (id:1287872)
       比尔·博普 Bill Purple (id:1301850)
       Robert C. Albertell Robert C. Albertell (id:1276926)
       李·奥尔洛夫 Lee Orloff (id:1293624)
       斯图尔特·罗伯特森 Stuart Robertson (id:1295796)
       Greg Groenekamp Greg Groenekamp (id:1285507)
       内尔森·塞普维达 Nelson Sepulveda (id:1297217)
       乔纳森·F·斯泰尔朗德 Jonathan F. Styrlund (id:1298589)
       Deborah Carlson Deborah Carlson (id:1280099)
       曼尼·王 Manny Wong (id:1301196)
       迈克尔·洛伊德 Michael Lloyd (id:1290195)

◎简  介
  故事发生在美国独立战争时。本杰明(梅尔?吉布森 Mel Gibson 饰)是法国裔美国人,他曾参加过法国人与印第安人的战争,身经百战。残酷的战争令他失去了心爱的妻子,他发誓要永远远离战争。                                    
                                所以当英国殖民者将战争烧到本杰明的家园时,他首先选择的不是奋起反抗,而是躲避。当他看到他的大儿子参加了当地组织的爱国者军队时,也没有跟着挺身而出。                                    
                                但是,当他的大儿子被敌军俘虏,小儿子挺身去救哥哥而被打死时,本杰明再也按捺不住了。他这时才清楚意识到,只有反抗才能解救家园于水火。

◎获奖情况 (共3项)
  第73届奥斯卡金像奖 (2001)
  最佳摄影(提名)
   └──凯莱布·德夏奈尔 (id:1049841)
  最佳音响(提名)
  最佳原创配乐(提名)
   └──约翰·威廉姆斯 (id:1054692)

  1. ##### MediaInfo ######
  2. General
  3. Unique ID                                : 121907629565928502074686671659998332740 (0x5BB68E303420535BFBE14D8E6C2F4744)
  4. Complete name                            : The.Patriot.2000.Bluray.2160p.x265.10bit.HDR.3Audio-MiniHD.mkv
  5. Format                                   : Matroska
  6. Format version                           : Version 4
  7. File size                                : 27.5 GiB
  8. Duration                                 : 2 h 44 min
  9. Overall bit rate mode                    : Variable
  10. Overall bit rate                         : 23.9 Mb/s
  11. Encoded date                             : UTC 2018-06-19 06:06:22
  12. Writing application                      : mkvmerge v20.0.0 ('I Am The Sun') 64-bit
  13. Writing library                          : libebml v1.3.5 + libmatroska v1.4.8
  14. Cover                                    : Yes
  15. Attachments                              : cover.jpg
  16. Video
  17. ID                                       : 1
  18. Format                                   : HEVC
  19. Format/Info                              : High Efficiency Video Coding
  20. Format profile                           : Main 10@L5.1@High
  21. Codec ID                                 : V_MPEGH/ISO/HEVC
  22. Duration                                 : 2 h 44 min
  23. Bit rate                                 : 17.7 Mb/s
  24. Width                                    : 3 840 pixels
  25. Height                                   : 1 600 pixels
  26. Display aspect ratio                     : 2.40:1
  27. Frame rate mode                          : Constant
  28. Frame rate                               : 23.976 (24000/1001/53354) FPS
  29. Color space                              : YUV
  30. Chroma subsampling                       : 4:2:0
  31. Bit depth                                : 10 bits
  32. Bits/(Pixel*Frame)                       : 0.120
  33. Stream size                              : 20.4 GiB (74%)
  34. Default                                  : Yes
  35. Forced                                   : No
  36. Color range                              : Limited
  37. Color primaries                          : BT.2020
  38. Transfer characteristics                 : PQ
  39. Matrix coefficients                      : BT.2020 non-constant
  40. Audio #1
  41. ID                                       : 2
  42. Format                                   : MLP FBA 16-ch
  43. Format/Info                              : Meridian Lossless Packing FBA with 16-channel presentation
  44. Commercial name                          : Dolby TrueHD with Dolby Atmos
  45. Codec ID                                 : A_TRUEHD
  46. Duration                                 : 2 h 44 min
  47. Bit rate mode                            : Variable
  48. Bit rate                                 : 5 062 kb/s
  49. Maximum bit rate                         : 7 461 kb/s
  50. Channel(s)                               : 8 channels
  51. Channel layout                           : L R C LFE Ls Rs Lb Rb
  52. Sampling rate                            : 48.0 kHz
  53. Frame rate                               : 1 200.000 FPS (40 SPF)
  54. Compression mode                         : Lossless
  55. Delay relative to video                  : 26 ms
  56. Stream size                              : 5.83 GiB (21%)
  57. Title                                    : 英语全景声
  58. Language                                 : English
  59. Default                                  : Yes
  60. Forced                                   : No
  61. Number of dynamic objects                : 11
  62. Bed channel count                        : 1 channel
  63. Bed channel configuration                : LFE
  64. Audio #2
  65. ID                                       : 3
  66. Format                                   : AC-3
  67. Format/Info                              : Audio Coding 3
  68. Commercial name                          : Dolby Digital
  69. Codec ID                                 : A_AC3
  70. Duration                                 : 2 h 44 min
  71. Bit rate mode                            : Constant
  72. Bit rate                                 : 640 kb/s
  73. Channel(s)                               : 6 channels
  74. Channel layout                           : L R C LFE Ls Rs
  75. Sampling rate                            : 48.0 kHz
  76. Frame rate                               : 31.250 FPS (1536 SPF)
  77. Compression mode                         : Lossy
  78. Delay relative to video                  : 26 ms
  79. Stream size                              : 754 MiB (3%)
  80. Title                                    : 英语
  81. Language                                 : English
  82. Service kind                             : Complete Main
  83. Default                                  : No
  84. Forced                                   : No
  85. Audio #3
  86. ID                                       : 4
  87. Format                                   : AC-3
  88. Format/Info                              : Audio Coding 3
  89. Commercial name                          : Dolby Digital
  90. Codec ID                                 : A_AC3
  91. Duration                                 : 2 h 44 min
  92. Bit rate mode                            : Constant
  93. Bit rate                                 : 448 kb/s
  94. Channel(s)                               : 6 channels
  95. Channel layout                           : L R C LFE Ls Rs
  96. Sampling rate                            : 48.0 kHz
  97. Frame rate                               : 31.250 FPS (1536 SPF)
  98. Compression mode                         : Lossy
  99. Stream size                              : 528 MiB (2%)
  100. Title                                    : 公映国语
  101. Language                                 : Chinese
  102. Service kind                             : Complete Main
  103. Default                                  : No
  104. Forced                                   : No
  105. Text #1
  106. ID                                       : 5
  107. Format                                   : PGS
  108. Muxing mode                              : zlib
  109. Codec ID                                 : S_HDMV/PGS
  110. Codec ID/Info                            : Picture based subtitle format used on BDs/HD-DVDs
  111. Duration                                 : 2 h 37 min
  112. Bit rate                                 : 25.3 kb/s
  113. Count of elements                        : 3447
  114. Stream size                              : 28.4 MiB (0%)
  115. Title                                    : 英文
  116. Language                                 : English
  117. Default                                  : Yes
  118. Forced                                   : No
  119. Text #2
  120. ID                                       : 6
  121. Format                                   : PGS
  122. Muxing mode                              : zlib
  123. Codec ID                                 : S_HDMV/PGS
  124. Codec ID/Info                            : Picture based subtitle format used on BDs/HD-DVDs
  125. Duration                                 : 2 h 43 min
  126. Bit rate                                 : 16.8 kb/s
  127. Count of elements                        : 2648
  128. Stream size                              : 19.6 MiB (0%)
  129. Title                                    : UHD原盘简中
  130. Language                                 : Chinese
  131. Default                                  : No
  132. Forced                                   : No
  133. Text #3
  134. ID                                       : 7
  135. Format                                   : PGS
  136. Muxing mode                              : zlib
  137. Codec ID                                 : S_HDMV/PGS
  138. Codec ID/Info                            : Picture based subtitle format used on BDs/HD-DVDs
  139. Duration                                 : 2 h 36 min
  140. Bit rate                                 : 17.3 kb/s
  141. Count of elements                        : 2652
  142. Stream size                              : 19.3 MiB (0%)
  143. Title                                    : UHD原盘繁中
  144. Language                                 : Chinese
  145. Default                                  : No
  146. Forced                                   : No
  147. Menu
  148. 00:00:00.000                             : zh:第 01 章
  149. 00:10:59.784                             : zh:第 02 章
  150. 00:22:28.388                             : zh:第 03 章
  151. 00:30:05.553                             : zh:第 04 章
  152. 00:36:42.158                             : zh:第 05 章
  153. 00:48:52.888                             : zh:第 06 章
  154. 00:57:34.159                             : zh:第 07 章
  155. 01:07:32.465                             : zh:第 08 章
  156. 01:19:39.024                             : zh:第 09 章
  157. 01:28:00.316                             : zh:第 10 章
  158. 01:38:02.710                             : zh:第 11 章
  159. 01:50:52.020                             : zh:第 12 章
  160. 01:57:49.687                             : zh:第 13 章
  161. 02:04:48.731                             : zh:第 14 章
  162. 02:21:06.291                             : zh:第 15 章
  163. 02:28:36.032                             : zh:第 16 章


TAGS 动作 剧情 战争 /

磁力链:
  • magnet:?xt=urn:btih:03CD3456B91D33FF422C54F43AE41D1A1E92BF02
上传的附件:
BT9527电影天堂 1、BT9527电影天堂提供的BT文件均来源于互联网抓取,只供网友学习交流、技术提升使用。
2、我们遵守BitTorrent点对点协议原则,任何版权问题请联系原资源发布商,我们不处理任何版权纠纷,谢谢!如有争议请联系邮箱:BT9527#hotmail.com(#换成@)
3、如果您发现某页面或地址有错误,请联系站长邮箱BT9527#hotmail.com(#换成@),我们会尽快处理。您的热心是对BT9527电影天堂最大的支持。
4、本站建议去正规影院观看电影以支持电影行业发展。
最新回复 (0)

你可以在 登录 or 注册 后,对此帖发表评论!

返回
发新帖