爆裂鼓手[简繁英字幕].Whiplash.2014.BluRay.2160p.x265.10bit.HDR-MiniHD 12.13GB

版主小s 24天前 70



◎译  名 爆裂鼓手 / 鼓动真我(港) / 进击的鼓手(台) / 鼓动人生(台) / 鞭打 / The Whiplash Drummer
◎片  名 Whiplash
◎年  代 2014
◎产  地 美国
◎类  别 剧情 / 音乐
◎语  言 英语
◎上映日期 2014-01-16(圣丹斯电影节) / 2014-10-10(美国)
◎IMDb链接 https://www.imdb.com/title/tt2582802/
◎豆瓣评分 8.7/10 (526162人评价)
◎豆瓣链接 https://movie.douban.com/subject/25773932/
◎片  长 107分钟
◎导  演 达米恩·查泽雷 Damien Chazelle (id:1014996)
◎编  剧 达米恩·查泽雷 Damien Chazelle (id:1014996)
◎演  员 迈尔斯·特勒 Miles Teller (id:1313408)
       J·K·西蒙斯 J.K. Simmons (id:1147911)
       保罗·雷瑟 Paul Reiser (id:1000222)
       梅莉莎·班诺伊 Melissa Benoist (id:1323409)
       奥斯汀·斯托维尔 Austin Stowell (id:1317023)
       内特·朗 Nate Lang (id:1346114)
       克里斯·马尔基 Chris Mulkey (id:1048223)
       达蒙·冈普顿 Damon Gupton (id:1346113)
       Suanne Spoke Suanne Spoke (id:1346112)
       马科斯·卡锡 Max Kasch (id:1036798)
       Charlie Ian Charlie Ian (id:1346111)
       杰森·布莱尔 Jayson Blair (id:1313381)
       科菲·斯里博伊 Kofi Siriboe (id:1231742)
       卡维塔帕蒂尔 Kavita Patil (id:1346110)
       C.J. Vana C.J. Vana (id:1346109)
       塔里克·洛维 Tarik Lowe (id:1331636)
       卡尔文·C·温布什 Calvin C. Winbush (id:1274178)
       迈克尔·D·科恩 Michael D. Cohen (id:1378733)
       艾普尔·格雷斯 April Grace (id:1091161)
       马库斯·亨德森 Marcus Henderson (id:1369570)
       亨利·G.桑德斯 Henry G. Sanders (id:1139826)
       温迪·李 Wendee Lee (id:1031827)
       米歇尔·拉夫 Michelle Ruff (id:1139744)
       贾森·雷特曼 Jason Reitman (id:1027257)
       海伦·埃斯特布鲁克 Helen Estabrook (id:1388217)
       贾斯汀·赫维兹 Justin Hurwitz (id:1365264)
       汤姆·克罗斯 Tom Cross (id:1344962)
       劳伦·哈达威 Lauren Hadaway (id:1465281)
       达蒙·冈普顿 Damon Gupton (id:1346113)
       内特·朗 Nate Lang (id:1346114)
       Suanne Spoke Suanne Spoke (id:1346112)
       Charlie Ian Charlie Ian (id:1346111)
       卡维塔帕蒂尔 Kavita Patil (id:1346110)
       C.J. Vana C.J. Vana (id:1346109)
       克雷格·曼恩 Craig Mann (id:1388218)

◎简  介
  19岁少年安德鲁(迈尔斯·特勒 Miles Teller 饰)成长在单亲家庭,一心想成为顶级爵士乐鼓手。某晚他在学校练习时被魔鬼导师弗莱彻(J·K·西蒙斯 J.K. Simmons 饰)相中,进入正规乐队,同时也开始为追求完美付出代价。安德鲁越是刻苦练习,与外部世界越是隔膜。唯一理解他的是弗莱彻,但后者的暴躁与喜怒无常扭曲了这段师生关系,更让安德鲁耳濡目染,连带自身的性格亦发生变化。最后当安德鲁终于登上纽约音乐厅的舞台,他才惊恐的发现原来弗莱彻一直等着将他打入尘埃......                                       
                                    《爆裂鼓手》讲述一名少年在严师督教下,以非常规手段挑战自己的极限、追逐爵士乐鼓手梦的热血故事。主人公热爱打鼓,但过度的投入让他失去对音乐的初衷,进而演变为生命的负荷以及师徒间近乎疯魔的对决。电影不只有音乐人的苦痛,更让人看到传统励志背后的残酷真相。 《爆裂鼓手》获得第30届圣丹...

◎获奖情况 (共35项)
  第87届奥斯卡金像奖 (2015)
  最佳影片(提名)
  最佳男配角
   └──J·K·西蒙斯 (id:1147911)
  最佳改编剧本(提名)
   └──达米恩·查泽雷 (id:1014996)
  最佳剪辑
   └──汤姆·克罗斯 (id:1344962)
  最佳混音

  第72届金球奖 (2015)
  电影类 最佳男配角
   └──J·K·西蒙斯 (id:1147911)

  第39届日本电影学院奖 (2016)
  最佳外语片(提名)

  第30届圣丹斯电影节 (2014)
  评审团大奖 剧情片
   └──达米恩·查泽雷 (id:1014996)
  观众奖 剧情片
   └──达米恩·查泽雷 (id:1014996)

  第21届美国演员工会奖 (2015)
  电影奖 最佳男配角
   └──J·K·西蒙斯 (id:1147911)

  第67届美国编剧工会奖 (2015)
  电影奖 最佳原创剧本(提名)
   └──达米恩·查泽雷 (id:1014996)

  第80届纽约影评人协会奖 (2014)
  最佳男配角
   └──J·K·西蒙斯 (id:1147911)

  第30届美国独立精神奖 (2015)
  最佳影片(提名)
  最佳导演(提名)
   └──达米恩·查泽雷 (id:1014996)
  最佳男配角
   └──J·K·西蒙斯 (id:1147911)
  最佳剪辑
   └──汤姆·克罗斯 (id:1344962)

  第24届哥谭独立电影奖 (2014)
  最佳男演员(提名)
   └──迈尔斯·特勒 (id:1313408)

  第15届美国电影学会奖 (2014)
  年度佳片

  第13届华盛顿影评人协会奖 (2014)
  最佳影片(提名)
  最佳导演(提名)
   └──达米恩·查泽雷 (id:1014996)
  最佳男配角
   └──J·K·西蒙斯 (id:1147911)
  最佳原创剧本(提名)
   └──达米恩·查泽雷 (id:1014996)
  最佳剪辑(提名)
   └──汤姆·克罗斯 (id:1344962)

  第35届波士顿影评人协会奖 (2014)
  最佳男配角
   └──J·K·西蒙斯 (id:1147911)

  第40届洛杉矶影评人协会奖 (2014)
  最佳男配角
   └──J·K·西蒙斯 (id:1147911)

  第27届芝加哥影评人协会奖 (2014)
  最佳影片(提名)
  最佳男配角
   └──J·K·西蒙斯 (id:1147911)
  最佳原创剧本(提名)
   └──达米恩·查泽雷 (id:1014996)
  最佳剪辑
   └──汤姆·克罗斯 (id:1344962)
  最具潜力导演
   └──达米恩·查泽雷 (id:1014996)

  第18届美国在线影评人协会奖 (2014)
  最佳影片(提名)
  最佳男配角(提名)
   └──J·K·西蒙斯 (id:1147911)
  最佳原创剧本(提名)
   └──达米恩·查泽雷 (id:1014996)
  最佳剪辑(提名)
   └──汤姆·克罗斯 (id:1344962)

  第5届豆瓣电影鑫像奖 (2015)
  鑫豆单元 最佳影片(外语)(提名)

  1. ##### MediaInfo ######
  2. General
  3. Unique ID                                : 259556648990133287480111587869760321789 (0xC344CAD1417DA510D02B1519D02E78FD)
  4. Complete name                            : Whiplash.2014.BluRay.2160p.x265.10bit.HDR-MiniHD.mkv
  5. Format                                   : Matroska
  6. Format version                           : Version 4
  7. File size                                : 12.1 GiB
  8. Duration                                 : 1 h 46 min
  9. Overall bit rate mode                    : Variable
  10. Overall bit rate                         : 16.2 Mb/s
  11. Encoded date                             : UTC 2020-09-28 04:53:15
  12. Writing application                      : mkvmerge v44.0.0 ('Domino') 64-bit
  13. Writing library                          : libebml v1.3.10 + libmatroska v1.5.2
  14. Video
  15. ID                                       : 1
  16. Format                                   : HEVC
  17. Format/Info                              : High Efficiency Video Coding
  18. Format profile                           : Main 10@L5.1@High
  19. HDR format                               : SMPTE ST 2086, HDR10 compatible
  20. Codec ID                                 : V_MPEGH/ISO/HEVC
  21. Duration                                 : 1 h 46 min
  22. Bit rate                                 : 13.1 Mb/s
  23. Width                                    : 3 840 pixels
  24. Height                                   : 1 600 pixels
  25. Display aspect ratio                     : 2.40:1
  26. Frame rate mode                          : Constant
  27. Frame rate                               : 23.976 (24000/1001/53354) FPS
  28. Color space                              : YUV
  29. Chroma subsampling                       : 4:2:0
  30. Bit depth                                : 10 bits
  31. Bits/(Pixel*Frame)                       : 0.089
  32. Stream size                              : 9.78 GiB (81%)
  33. Writing library                          : x265 3.3+3-g8f8e332f1+29:[Windows][#Erg`Djh#][@Yuuki] made by @Dongfangbubai
  34. Encoding settings                        : rc=crf / crf=18.0000 / qcomp=0.70 / qpstep=4 / stats-write=0 / stats-read=0 / vbv-maxrate=160000 / vbv-bufsize=160000 / vbv-init=0.9 / crf-max=0.0 / crf-min=0.0 / no-lossless / no-cu-lossless / aq-mode=3 / aq-strength=0.80 / cbqpoffs=-3 / crqpoffs=-3 / ipratio=1.40 / pbratio=1.30 / psy-rd=2.00 / psy-rdoq=3.00 / deblock=-1:-1 / ref=5 / limit-refs=0 / no-limit-modes / bframes=8 / b-adapt=2 / bframe-bias=0 / b-pyramid / b-intra / weightp / weightb / min-keyint=23 / max-keyint=240 / rc-lookahead=60 / gop-lookahead=0 / NTMzNTQ=uuDQuD2mJt9fsCf / scenecut=40 / hist-scenecut=0 / radl=0 / max-cu-size=32 / min-cu-size=8 / me=3 / subme=4 / merange=25 / rdoq-level=2 / rd=4 / rdpenalty=1 / dynamic-rd=0.00 / no-rd-refine / ----- / no-cutree / no-sao / rect / no-amp / no-open-gop / wpp / pmode / pme / no-psnr / no-ssim / nr-intra=0 / nr-inter=0 / no-constrained-intra / no-strong-intra-smoothing / max-tu-size=32 / tu-inter-depth=2 / tu-intra-depth=2 / limit-tu=0 / qg-size=32 / qpmax=69 / qpmin=0 / ----- / cpuid=533541176575 / frame-threads=6 / numa-pools=54,- / log-level=2 / input-csp=1 / input-res=3840x1600 / interlace=0 / level-idc=0 / high-tier=1 / uhd-bd=0 / no-allow-non-conformance / no-repeat-headers / no-aud / hrd / info / hash=0 / no-temporal-layers / lookahead-slices=0 / no-splice / no-intra-refresh / no-ssim-rd / signhide / no-tskip / max-merge=3 / temporal-mvp / no-frame-dup / no-hme / no-analyze-src-pics / no-sao-non-deblock / selective-sao=0 / no-early-skip / no-rskip / no-fast-intra / no-tskip-fast / no-splitrd-skip / zone-count=0 / no-strict-cbr / no-rc-grain / no-const-vbv / sar=0 / overscan=0 / videoformat=5 / range=0 / colorprim=9 / transfer=16 / colormatrix=9 / chromaloc=0 / display-window=0 / master-display=G(13250,34500)B(7500,3000)R(34000,16000)WP(15635,16450)L(40000000,50) / cll=1000,82 / min-luma=0 / max-luma=1023 / log2-max-poc-lsb=8 / vui-timing-info / vui-hrd-info / slices=1 / no-opt-qp-pps / no-opt-ref-list-length-pps / no-multi-pass-opt-rps / scenecut-bias=0.05 / hist-threshold=0.01 / no-opt-cu-delta-qp / no-aq-motion / hdr10 / hdr10-opt / no-dhdr10-opt / no-idr-recovery-sei / analysis-reuse-level=0 / analysis-save-reuse-level=0 / analysis-load-reuse-level=0 / scale-factor=0 / refine-intra=0 / refine-inter=0 / refine-mv=1 / refine-ctu-distortion=0 / no-limit-sao / ctu-info=0 / no-lowpass-dct / refine-analysis-type=0 / copy-pic=1 / max-ausize-factor=1.0 / no-dynamic-refine / no-single-sei / no-hevc-aq / no-svt / no-field / qp-adaptation-range=1.00 / no-scenecut-aware-qpconformance-window-offsets / right=0 / bottom=0 / NTMzNTQ=
  35. Default                                  : Yes
  36. Forced                                   : No
  37. Color range                              : Limited
  38. Color primaries                          : BT.2020
  39. Transfer characteristics                 : PQ
  40. Matrix coefficients                      : BT.2020 non-constant
  41. Mastering display color primaries        : Display P3
  42. Mastering display luminance              : min: 0.0050 cd/m2, max: 4000 cd/m2
  43. Maximum Content Light Level              : 1000 cd/m2
  44. Maximum Frame-Average Light Level        : 82 cd/m2
  45. Audio
  46. ID                                       : 2
  47. Format                                   : MLP FBA 16-ch
  48. Format/Info                              : Meridian Lossless Packing FBA with 16-channel presentation
  49. Commercial name                          : Dolby TrueHD with Dolby Atmos
  50. Codec ID                                 : A_TRUEHD
  51. Duration                                 : 1 h 46 min
  52. Bit rate mode                            : Variable
  53. Bit rate                                 : 3 032 kb/s
  54. Maximum bit rate                         : 5 253 kb/s
  55. Channel(s)                               : 8 channels
  56. Channel layout                           : L R C LFE Ls Rs Lb Rb
  57. Sampling rate                            : 48.0 kHz
  58. Frame rate                               : 1 200.000 FPS (40 SPF)
  59. Compression mode                         : Lossless
  60. Stream size                              : 2.26 GiB (19%)
  61. Language                                 : English
  62. Default                                  : Yes
  63. Forced                                   : No
  64. Number of dynamic objects                : 11
  65. Bed channel count                        : 1 channel
  66. Bed channel configuration                : LFE
  67. Text #1
  68. ID                                       : 3
  69. Format                                   : PGS
  70. Muxing mode                              : zlib
  71. Codec ID                                 : S_HDMV/PGS
  72. Codec ID/Info                            : Picture based subtitle format used on BDs/HD-DVDs
  73. Duration                                 : 1 h 44 min
  74. Bit rate                                 : 26.3 kb/s
  75. Count of elements                        : 2065
  76. Stream size                              : 19.6 MiB (0%)
  77. Title                                    : 英文
  78. Language                                 : English
  79. Default                                  : Yes
  80. Forced                                   : No
  81. Text #2
  82. ID                                       : 4
  83. Format                                   : PGS
  84. Muxing mode                              : zlib
  85. Codec ID                                 : S_HDMV/PGS
  86. Codec ID/Info                            : Picture based subtitle format used on BDs/HD-DVDs
  87. Duration                                 : 1 h 35 min
  88. Bit rate                                 : 20.2 kb/s
  89. Count of elements                        : 1892
  90. Stream size                              : 13.7 MiB (0%)
  91. Title                                    : 简中
  92. Language                                 : Chinese
  93. Default                                  : No
  94. Forced                                   : No
  95. Text #3
  96. ID                                       : 5
  97. Format                                   : PGS
  98. Muxing mode                              : zlib
  99. Codec ID                                 : S_HDMV/PGS
  100. Codec ID/Info                            : Picture based subtitle format used on BDs/HD-DVDs
  101. Duration                                 : 1 h 36 min
  102. Bit rate                                 : 19.6 kb/s
  103. Count of elements                        : 1950
  104. Stream size                              : 13.5 MiB (0%)
  105. Title                                    : 原盘简中
  106. Language                                 : Chinese
  107. Default                                  : No
  108. Forced                                   : No
  109. Text #4
  110. ID                                       : 6
  111. Format                                   : PGS
  112. Muxing mode                              : zlib
  113. Codec ID                                 : S_HDMV/PGS
  114. Codec ID/Info                            : Picture based subtitle format used on BDs/HD-DVDs
  115. Duration                                 : 1 h 36 min
  116. Bit rate                                 : 21.1 kb/s
  117. Count of elements                        : 1950
  118. Stream size                              : 14.5 MiB (0%)
  119. Title                                    : 原盘繁中
  120. Language                                 : Chinese
  121. Default                                  : No
  122. Forced                                   : No
  123. Menu
  124. 00:00:00.000                             : en:Chapter 1
  125. 00:07:02.922                             : en:Chapter 2
  126. 00:14:45.551                             : en:Chapter 3
  127. 00:24:37.476                             : en:Chapter 4
  128. 00:30:17.190                             : en:Chapter 5
  129. 00:35:55.070                             : en:Chapter 6
  130. 00:43:42.453                             : en:Chapter 7
  131. 00:47:06.407                             : en:Chapter 8
  132. 00:53:23.575                             : en:Chapter 9
  133. 01:02:48.598                             : en:Chapter 10
  134. 01:10:41.654                             : en:Chapter 11
  135. 01:14:14.700                             : en:Chapter 12
  136. 01:17:59.884                             : en:Chapter 13
  137. 01:23:17.201                             : en:Chapter 14
  138. 01:25:39.384                             : en:Chapter 15
  139. 01:32:07.313                             : en:Chapter 16
  140. 01:42:42.156                             : en:Chapter 17
复制代码




TAGS 剧情 音乐 /

磁力链:
  • magnet:?xt=urn:btih:AD7185B8DDFD32C958E26C38180014EB5DCF1CA1
上传的附件:
BT9527电影天堂 1、BT9527电影天堂提供的BT文件均来源于互联网抓取,只供网友学习交流、技术提升使用。
2、我们遵守BitTorrent点对点协议原则,任何版权问题请联系原资源发布商,我们不处理任何版权纠纷,谢谢!如有争议请联系邮箱:BT9527#hotmail.com(#换成@)
3、如果您发现某页面或地址有错误,请联系站长邮箱BT9527#hotmail.com(#换成@),我们会尽快处理。您的热心是对BT9527电影天堂最大的支持。
4、本站建议去正规影院观看电影以支持电影行业发展。
最新回复 (0)

你可以在 登录 or 注册 后,对此帖发表评论!

返回
发新帖