沉睡魔咒2[简英字幕].Maleficent.Mistress.of.Evil.2019.BluRay.2160p.x265.10bit.HDR.2Audio-MiniHD 24.29GB

版主小s 4月前 208



◎译  名 沉睡魔咒2 / 沉睡魔咒2:恶魔夫人 / 黑魔后2(港) / 黑魔女2(台) / 玛琳菲森2 / Maleficent 2
◎片  名 Maleficent: Mistress of Evil
◎年  代 2019
◎产  地 美国 / 英国
◎类  别 奇幻 / 冒险
◎语  言 英语
◎上映日期 2019-10-18(美国/中国大陆)
◎IMDb链接 https://www.imdb.com/title/tt4777008/
◎豆瓣评分 5.9/10 (172662人评价)
◎豆瓣链接 https://movie.douban.com/subject/26426056/
◎片  长 119分钟
◎导  演 乔阿吉姆·罗恩尼 Joachim R?nning (id:1216851)
◎编  剧 迈卡·费兹曼-布卢 Micah Fitzerman-Blue (id:1334795)
       诺亚·哈普斯特 Noah Harpster (id:1334793)
       琳达·伍尔芙顿 Linda Woolverton (id:1324713)
◎演  员 安吉丽娜·朱莉 Angelina Jolie (id:1054447)
       艾丽·范宁 Elle Fanning (id:1025133)
       米歇尔·菲佛 Michelle Pfeiffer (id:1035642)
       萨姆·赖利 Sam Riley (id:1013934)
       哈里斯·迪金森 Harris Dickinson (id:1371459)
       艾德·斯克林 Ed Skrein (id:1329130)
       切瓦特·埃加福 Chiwetel Ejiofor (id:1010581)
       朱诺·坦普尔 Juno Temple (id:1274500)
       艾美达·斯丹顿 Imelda Staunton (id:1013856)
       加绘·亚历山大 Kae Alexander (id:1401072)
       莱丝利·曼维尔 Lesley Manville (id:1032219)
       弗莱迪·怀斯 Freddie Wise (id:1400646)
       詹·穆瑞 Jenn Murray (id:1312014)
       石原贵雅 Miyavi (id:1314385)
       大卫·吉亚西 David Gyasi (id:1201851)
       罗伯特·林德森 Robert Lindsay (id:1116923)
       朱迪斯·沙克妮 Judith Shekoni (id:1352163)
       伯纳多·桑托斯 Bernardo Santos (id:1390686)
       萨克·霍兰 Zak Holland (id:1412123)
       巴里·艾尔德 Barry Aird (id:1368194)
       耶斯·利奥丹 Jess Liaudin (id:1323451)
       拉塞尔·巴洛格 Russell Balogh (id:1325268)
       拉亚·坎普贝尔 Rayna Campbell (id:1326872)
       斯嘉丽·格兰特 Scarlett Grant (id:1405640)
       汤姆·伯宁顿 Tom Bonington (id:1349319)
       阿克塞尔·努 Axel Nu (id:1410187)
       特蕾莎·马奥尼 Teresa Mahoney (id:1412333)
       约翰·卡鲁 John Carew (id:1186030)
       刘易斯·柯克 Lewis Kirk (id:1435976)
       沃维克·戴维斯 Warwick Davis (id:1006994)
       乔·罗斯 Joe Roth (id:1018255)
       尼基·佩尼 Nikki Penny (id:1294248)
       安吉丽娜·朱莉 Angelina Jolie (id:1054447)
       邓肯·亨德森 Duncan Henderson (id:1286414)
       琳达·伍尔芙顿 Linda Woolverton (id:1324713)
       Bryan H. Carroll Bryan H. Carroll (id:1006165)
       詹姆斯·纽顿·霍华德 James Newton Howard (id:1019135)
       吉奥夫·赞里 Geoff Zanelli (id:1028419)
       亨利·布拉罕 Henry Braham (id:1042627)
       克雷格·伍德 Craig Wood (id:1301227)
       帕特里克·塔特普洛斯 Patrick Tatopoulos (id:1298949)
       艾伦·米罗伊尼克 Ellen Mirojnick (id:1010099)

◎简  介
  《沉睡魔咒》续集将讲述魔女玛琳菲森(朱莉)和将成为女王的爱洛公主(范宁)关系缓和但依旧复杂,但两人要联手对付新的反派,保护森林王国和那里神奇的动物们。

◎获奖情况 (共5项)
  第92届奥斯卡金像奖 (2020)
  最佳化妆与发型设计(提名)

  第24届美国艺术指导工会奖 (2020)
  电影奖 最佳幻想电影艺术指导(提名)
   └──帕特里克·塔特普洛斯 (id:1298949)

  第22届美国服装设计工会奖 (2020)
  科幻/奇幻题材电影最佳服装设计
   └──艾伦·米罗伊尼克 (id:1010099)

  第7届美国化妆及发型设计工会奖 (2020)
  电影类最佳年代戏发型设计(提名)

  第40届伦敦影评人协会奖 (2020)
  年度英国/爱尔兰女演员(提名)
   └──莱丝利·曼维尔 (id:1032219)

  1. ##### MediaInfo ######
  2. General
  3. Unique ID                                : 105715916623311935245597428725063453076 (0x4F88251AF093F7B6A106DB7414198994)
  4. Complete name                            : Maleficent.Mistress.of.Evil.2019.BluRay.2160p.x265.10bit.HDR.2Audio-MiniHD.mkv
  5. Format                                   : Matroska
  6. Format version                           : Version 4
  7. File size                                : 24.3 GiB
  8. Duration                                 : 1 h 58 min
  9. Overall bit rate mode                    : Variable
  10. Overall bit rate                         : 29.3 Mb/s
  11. Encoded date                             : UTC 2020-01-06 12:35:42
  12. Writing application                      : mkvmerge v24.0.0 ('Beyond The Pale') 64-bit
  13. Writing library                          : libebml v1.3.6 + libmatroska v1.4.9
  14. Video
  15. ID                                       : 1
  16. Format                                   : HEVC
  17. Format/Info                              : High Efficiency Video Coding
  18. Format profile                           : Main 10@L5.1@High
  19. HDR format                               : SMPTE ST 2086, HDR10 compatible
  20. Codec ID                                 : V_MPEGH/ISO/HEVC
  21. Duration                                 : 1 h 58 min
  22. Bit rate                                 : 23.4 Mb/s
  23. Width                                    : 3 840 pixels
  24. Height                                   : 1 604 pixels
  25. Display aspect ratio                     : 2.40:1
  26. Frame rate mode                          : Constant
  27. Frame rate                               : 23.976 (24000/1001/53354) FPS
  28. Color space                              : YUV
  29. Chroma subsampling                       : 4:2:0
  30. Bit depth                                : 10 bits
  31. Bits/(Pixel*Frame)                       : 0.158
  32. Stream size                              : 19.4 GiB (80%)
  33. Writing library                          : x265 3.2+7-gb291a1c95+26:[Windows][#Erg`Djh#][@Yuuki] made by @Dongfangbubai
  34. Encoding settings                        : rc=crf / crf=17.3000 / qcomp=0.80 / qpstep=4 / stats-write=0 / stats-read=0 / vbv-maxrate=160000 / vbv-bufsize=160000 / vbv-init=0.9 / crf-max=0.0 / crf-min=0.0 / no-lossless / no-cu-lossless / aq-mode=1 / aq-strength=0.90 / cbqpoffs=-3 / crqpoffs=-3 / ipratio=1.40 / pbratio=1.30 / psy-rd=2.00 / psy-rdoq=3.00 / deblock=-1:-1 / ref=5 / limit-refs=0 / no-limit-modes / bframes=8 / b-adapt=2 / bframe-bias=0 / b-pyramid / b-intra / weightp / weightb / min-keyint=23 / max-keyint=240 / rc-lookahead=60 / gop-lookahead=0 / NTMzNTQ=uuDQuD2mJt9fsCf / scenecut=40 / radl=0 / max-cu-size=32 / min-cu-size=8 / me=3 / subme=4 / merange=25 / rdoq-level=2 / rd=4 / rdpenalty=1 / dynamic-rd=0.00 / no-rd-refine / ----- / no-cutree / no-sao / no-rect / no-amp / no-open-gop / wpp / pmode / pme / no-psnr / no-ssim / nr-intra=0 / nr-inter=0 / no-constrained-intra / no-strong-intra-smoothing / max-tu-size=32 / tu-inter-depth=2 / tu-intra-depth=2 / limit-tu=0 / qg-size=32 / qpmax=69 / qpmin=0 / ----- / cpuid=533541111039 / frame-threads=6 / numa-pools=54,- / log-level=2 / input-csp=1 / input-res=3840x1604 / interlace=0 / level-idc=0 / high-tier=1 / uhd-bd=0 / no-allow-non-conformance / no-repeat-headers / no-aud / hrd / info / hash=0 / no-temporal-layers / lookahead-slices=0 / no-splice / no-intra-refresh / no-ssim-rd / signhide / no-tskip / max-merge=3 / temporal-mvp / no-hme / no-analyze-src-pics / no-sao-non-deblock / selective-sao=0 / no-early-skip / no-rskip / no-fast-intra / no-tskip-fast / no-splitrd-skip / zone-count=0 / no-strict-cbr / no-rc-grain / no-const-vbv / sar=0 / overscan=0 / videoformat=5 / range=0 / colorprim=9 / transfer=16 / colormatrix=9 / chromaloc=0 / display-window=0 / master-display=G(13250,34500)B(7500,3000)R(34000,16000)WP(15635,16450)L(10000000,1) / cll=0,0 / min-luma=0 / max-luma=1023 / log2-max-poc-lsb=8 / vui-timing-info / vui-hrd-info / slices=1 / no-opt-qp-pps / no-opt-ref-list-length-pps / no-multi-pass-opt-rps / scenecut-bias=0.05 / no-opt-cu-delta-qp / no-aq-motion / hdr / hdr-opt / no-dhdr10-opt / no-idr-recovery-sei / analysis-reuse-level=5 / scale-factor=0 / refine-intra=0 / refine-inter=0 / refine-mv=1 / refine-ctu-distortion=0 / no-limit-sao / ctu-info=0 / no-lowpass-dct / refine-analysis-type=0 / copy-pic=1 / max-ausize-factor=1.0 / no-dynamic-refine / no-single-sei / no-hevc-aq / no-svt / no-field / qp-adaptation-range=1.00
  35. Default                                  : Yes
  36. Forced                                   : No
  37. Color range                              : Limited
  38. Color primaries                          : BT.2020
  39. Transfer characteristics                 : PQ
  40. Matrix coefficients                      : BT.2020 non-constant
  41. Mastering display color primaries        : Display P3
  42. Mastering display luminance              : min: 0.0001 cd/m2, max: 1000 cd/m2
  43. Audio #1
  44. ID                                       : 2
  45. Format                                   : MLP FBA 16-ch
  46. Format/Info                              : Meridian Lossless Packing FBA with 16-channel presentation
  47. Commercial name                          : Dolby TrueHD with Dolby Atmos
  48. Codec ID                                 : A_TRUEHD
  49. Duration                                 : 1 h 58 min
  50. Bit rate mode                            : Variable
  51. Bit rate                                 : 5 128 kb/s
  52. Maximum bit rate                         : 8 160 kb/s
  53. Channel(s)                               : 8 channels
  54. Channel layout                           : L R C LFE Ls Rs Lb Rb
  55. Sampling rate                            : 48.0 kHz
  56. Frame rate                               : 1 200.000 FPS (40 SPF)
  57. Compression mode                         : Lossless
  58. Stream size                              : 4.26 GiB (18%)
  59. Language                                 : English
  60. Default                                  : Yes
  61. Forced                                   : No
  62. Number of dynamic objects                : 13
  63. Bed channel count                        : 1 channel
  64. Bed channel configuration                : LFE
  65. Audio #2
  66. ID                                       : 3
  67. Format                                   : AC-3
  68. Format/Info                              : Audio Coding 3
  69. Commercial name                          : Dolby Digital
  70. Codec ID                                 : A_AC3
  71. Duration                                 : 1 h 58 min
  72. Bit rate mode                            : Constant
  73. Bit rate                                 : 640 kb/s
  74. Channel(s)                               : 6 channels
  75. Channel layout                           : L R C LFE Ls Rs
  76. Sampling rate                            : 48.0 kHz
  77. Frame rate                               : 31.250 FPS (1536 SPF)
  78. Compression mode                         : Lossy
  79. Stream size                              : 544 MiB (2%)
  80. Language                                 : English
  81. Service kind                             : Complete Main
  82. Default                                  : No
  83. Forced                                   : No
  84. Text #1
  85. ID                                       : 4
  86. Format                                   : PGS
  87. Muxing mode                              : zlib
  88. Codec ID                                 : S_HDMV/PGS
  89. Codec ID/Info                            : Picture based subtitle format used on BDs/HD-DVDs
  90. Duration                                 : 1 h 53 min
  91. Bit rate                                 : 30.9 kb/s
  92. Count of elements                        : 3210
  93. Stream size                              : 25.0 MiB (0%)
  94. Title                                    : English SDH
  95. Language                                 : English
  96. Default                                  : Yes
  97. Forced                                   : No
  98. Text #2
  99. ID                                       : 5
  100. Format                                   : PGS
  101. Muxing mode                              : zlib
  102. Codec ID                                 : S_HDMV/PGS
  103. Codec ID/Info                            : Picture based subtitle format used on BDs/HD-DVDs
  104. Duration                                 : 1 h 48 min
  105. Bit rate                                 : 13.9 kb/s
  106. Count of elements                        : 2018
  107. Stream size                              : 10.8 MiB (0%)
  108. Title                                    : 官方简中
  109. Language                                 : Chinese
  110. Default                                  : No
  111. Forced                                   : No
  112. Text #3
  113. ID                                       : 6
  114. Format                                   : PGS
  115. Muxing mode                              : zlib
  116. Codec ID                                 : S_HDMV/PGS
  117. Codec ID/Info                            : Picture based subtitle format used on BDs/HD-DVDs
  118. Duration                                 : 1 h 52 min
  119. Bit rate                                 : 22.1 kb/s
  120. Count of elements                        : 2435
  121. Stream size                              : 17.8 MiB (0%)
  122. Title                                    : 简中
  123. Language                                 : Chinese
  124. Default                                  : No
  125. Forced                                   : No
  126. Text #4
  127. ID                                       : 7
  128. Format                                   : PGS
  129. Muxing mode                              : zlib
  130. Codec ID                                 : S_HDMV/PGS
  131. Codec ID/Info                            : Picture based subtitle format used on BDs/HD-DVDs
  132. Duration                                 : 1 h 52 min
  133. Bit rate                                 : 34.9 kb/s
  134. Count of elements                        : 2435
  135. Stream size                              : 28.1 MiB (0%)
  136. Title                                    : 简英
  137. Language                                 : Chinese
  138. Default                                  : No
  139. Forced                                   : No
复制代码




TAGS 奇幻 冒险 /

磁力链:
  • magnet:?xt=urn:btih:5408AE439440DF5C4ECF1F2A44E57D138F366B71
上传的附件:
BT9527电影天堂 1、BT9527电影天堂提供的BT文件均来源于互联网抓取,只供网友学习交流、技术提升使用。
2、我们遵守BitTorrent点对点协议原则,任何版权问题请联系原资源发布商,我们不处理任何版权纠纷,谢谢!如有争议请联系邮箱:BT9527#hotmail.com(#换成@)
3、如果您发现某页面或地址有错误,请联系站长邮箱BT9527#hotmail.com(#换成@),我们会尽快处理。您的热心是对BT9527电影天堂最大的支持。
4、本站建议去正规影院观看电影以支持电影行业发展。
最新回复 (0)

你可以在 登录 or 注册 后,对此帖发表评论!

返回
发新帖