沉睡魔咒[国英多音轨/简英字幕].Maleficent.2014.BluRay.2160p.x265.10bit.HDR.3Audio-MiniHD 15.58GB

版主小s 3月前 214



◎译  名 沉睡魔咒 / 黑魔后:沉睡魔咒(港) / 黑魔女:沉睡魔咒(台) / 梅尔菲森特 / 玛琳菲森 / 黑法魔女 / 睡美人外传
◎片  名 Maleficent
◎年  代 2014
◎产  地 美国 / 英国
◎类  别 奇幻 / 冒险
◎语  言 英语
◎上映日期 2014-06-20(中国大陆) / 2014-05-30(美国)
◎IMDb链接 https://www.imdb.com/title/tt1587310/
◎豆瓣评分 7.3/10 (297273人评价)
◎豆瓣链接 https://movie.douban.com/subject/4301224/
◎片  长 98分钟(中国大陆)
◎导  演 罗伯特·斯特罗姆伯格 Robert Stromberg (id:1298560)
◎编  剧 保罗·迪尼 Paul Dini (id:1023174)
       琳达·伍尔芙顿 Linda Woolverton (id:1324713)
◎演  员 安吉丽娜·朱莉 Angelina Jolie (id:1054447)
       艾丽·范宁 Elle Fanning (id:1025133)
       沙尔托·科普雷 Sharlto Copley (id:1036300)
       莱丝利·曼维尔 Lesley Manville (id:1032219)
       艾美达·斯丹顿 Imelda Staunton (id:1013856)
       朱诺·坦普尔 Juno Temple (id:1274500)
       萨姆·赖利 Sam Riley (id:1013934)
       布伦顿·思韦茨 Brenton Thwaites (id:1325896)
       肯内斯·库兰汉姆 Kenneth Cranham (id:1078956)
       莎拉·弗林德 Sarah Flind (id:1340296)
       汉娜·纽 Hannah New (id:1337555)
       伊莎贝尔·莫洛伊 Isobelle Molloy (id:1340299)
       迈克尔·希金斯 Michael Higgins (id:1340298)
       艾拉·珀内尔 Ella Purnell (id:1261575)
       杰克逊·比尤斯 Jackson Bews (id:1340297)
       玛拉马·科利特 Marama Corlett (id:1321771)
       埃莉诺?沃辛顿-考克斯 Eleanor Worthington-Cox (id:1349527)
       约翰·麦克米兰 John MacMillan (id:1319678)
       维维恩·玛谢琳·朱莉-皮特 Vivienne Jolie-Pitt (id:1322921)
       乔·奥斯蒙德 Jo Osmond (id:1234671)
       马修·约翰·摩尔利 Matthew John Morley (id:1340300)
       安东尼·梅 Anthony May (id:1124612)
       加里·嘉吉 Gary Cargill (id:1433012)
       斯蒂芬·蔡斯 Stephan Chase (id:1350464)
       Mark Caven Mark Caven (id:1068495)
       史蒂芬·克里 Steven Cree (id:1332053)
       珍妮·麦克蒂尔 Janet McTeer (id:1045011)
       拉斯科·阿特金斯 Lasco Atkins (id:1346147)
       大卫·博特 David Boat (id:1391812)
       亚当·邦德 Adam Bond (id:1233052)
       奥利弗·莫尔特曼 Oliver Maltman (id:1319599)
       安格斯·瑞特 Angus Wright (id:1311256)
       Kara Lily Hayworth Kara Lily Hayworth (id:1454171)
       里奥·苏特 Leo Suter (id:1383057)
       蒂姆·特洛洛尔 Tim Treloar (id:1447523)
       安吉丽娜·朱莉 Angelina Jolie (id:1054447)
       唐·哈恩 Don Hahn (id:1285799)
       乔·罗斯 Joe Roth (id:1018255)
       拉娜德雷 Lana Del Rey (id:1328587)
       詹姆斯·纽顿·霍华德 James Newton Howard (id:1019135)
       迪安·塞姆勒 Dean Semler (id:1276583)
       克里斯·莱本森 Chris Lebenzon (id:1041806)
       理查德·皮尔逊 Richard Pearson (id:1294175)
       露西·贝文 Lucy Bevan (id:1423431)
       李·桑多斯 Lee Sandales (id:1324868)
       Ashley Winter Ashley Winter (id:1305206)
       Frank Walsh Frank Walsh (id:1276492)
       Phil Sims Phil Sims (id:1308853)
       迪伦·科尔 Dylan Cole (id:1305640)
       David Allday David Allday (id:1277024)
       加里·弗里曼 Gary Freeman (id:1284156)
       安娜·B·薛帕德 Anna B. Sheppard (id:1278606)
       周逸夫 YifuZhou (id:1374591)
       杰西卡卡林顿 Jessica Carrington (id:1404965)
       戴维·温斯坦 David Weinstein (id:1041934)
       凯利·波特 Kelly Port (id:1020938)
       斯科特·埃德斯坦 Scott Edelstein (id:1414097)
       奥·布里克 Ed Ulbrich (id:1410103)
       迈克尔·寇特斯 Michael Koltes (id:1371165)

◎简  介
  在宁静祥和的摩尔王国,广袤的大森林中,动物与精灵和谐相处,无忧无虑。那一年,天真无邪的小仙女玛琳菲森(伊莎贝尔·莫洛伊 Isobelle Molloy 饰)邂逅了人类小男孩斯特凡(迈克尔·希金斯 Michael Higgins 饰)。他们两小无猜,成为亲密无间的好朋友, 更在万物的守护下坠入爱河。但是随着年龄的增长,斯特凡(沙尔托·科普雷 Sharlto Copley 饰)褪去了往日的纯真,被人类的贪欲所吸引。而玛琳菲森(安吉丽娜·朱莉 Angelina Jolie 饰)则成长为法术强大的仙女。愚蠢的人类向摩尔王国开战,斯特凡为了成为王位继承者,残忍地割下了玛琳菲森的翅膀。                                    
                                肉体的痛苦和心灵的创伤,让玛琳菲森变成了满怀仇恨的冷酷魔女,为了复仇她给斯特凡的女儿爱洛公主(艾丽·范宁 Elle Fanning 饰)施下了沉睡魔咒……

◎获奖情况 (共5项)
  第87届奥斯卡金像奖 (2015)
  最佳服装设计(提名)
   └──安娜·B·薛帕德 (id:1278606)

  第18届好莱坞电影奖 (2014)
  年度艺术指导

  第16届美国青少年选择奖 (2014)
  最佳动作冒险电影(提名)
  最佳动作冒险电影女演员(提名)

  第1届豆瓣电影年度榜单 (2014)
  6月最受关注电影(提名)

  1. ##### MediaInfo ######
  2. General
  3. Unique ID                                : 52580637041131573558907100965044938868 (0x278EA98EEF0FA1B2D668D4238002E874)
  4. Complete name                            : Maleficent.2014.BluRay.2160p.x265.10bit.HDR.3Audio-MiniHD.mkv
  5. Format                                   : Matroska
  6. Format version                           : Version 4
  7. File size                                : 15.6 GiB
  8. Duration                                 : 1 h 37 min
  9. Overall bit rate mode                    : Variable
  10. Overall bit rate                         : 22.9 Mb/s
  11. Encoded date                             : UTC 2019-10-03 05:59:39
  12. Writing application                      : mkvmerge v20.0.0 ('I Am The Sun') 64-bit
  13. Writing library                          : libebml v1.3.5 + libmatroska v1.4.8
  14. Video
  15. ID                                       : 1
  16. Format                                   : HEVC
  17. Format/Info                              : High Efficiency Video Coding
  18. Format profile                           : Main 10@L5.1@High
  19. HDR format                               : SMPTE ST 2086, HDR10 compatible
  20. Codec ID                                 : V_MPEGH/ISO/HEVC
  21. Duration                                 : 1 h 37 min
  22. Bit rate                                 : 16.7 Mb/s
  23. Width                                    : 3 840 pixels
  24. Height                                   : 1 600 pixels
  25. Display aspect ratio                     : 2.40:1
  26. Frame rate mode                          : Constant
  27. Frame rate                               : 23.976 (24000/1001/53354) FPS
  28. Color space                              : YUV
  29. Chroma subsampling                       : 4:2:0
  30. Bit depth                                : 10 bits
  31. Bits/(Pixel*Frame)                       : 0.113
  32. Stream size                              : 11.4 GiB (73%)
  33. Writing library                          : x265 3.1+2-g764455672+26:[Windows][+Erg`Djh+][Yuuki ] made by @Dongfangbubai
  34. Encoding settings                        : rc=crf / crf=18.0000 / qcomp=0.70 / qpstep=4 / stats-write=0 / stats-read=0 / vbv-maxrate=160000 / vbv-bufsize=160000 / vbv-init=0.9 / crf-max=0.0 / crf-min=0.0 / no-lossless / no-cu-lossless / aq-mode=1 / aq-strength=0.90 / cbqpoffs=-3 / crqpoffs=-3 / ipratio=1.40 / pbratio=1.30 / psy-rd=2.00 / psy-rdoq=3.00 / deblock=-1:-1 / ref=5 / limit-refs=0 / no-limit-modes / bframes=8 / b-adapt=2 / bframe-bias=0 / b-pyramid / b-intra / weightp / weightb / min-keyint=23 / max-keyint=240 / rc-lookahead=60 / gop-lookahead=0 / NTMzNTQ=uuDQuD2mJt9fsCf / scenecut=40 / radl=0 / max-cu-size=32 / min-cu-size=8 / me=3 / subme=4 / merange=25 / rdoq-level=2 / rd=4 / rdpenalty=1 / dynamic-rd=0.00 / no-rd-refine / ----- / no-cutree / no-sao / no-rect / no-amp / no-open-gop / wpp / pmode / pme / no-psnr / no-ssim / nr-intra=0 / nr-inter=0 / no-constrained-intra / no-strong-intra-smoothing / max-tu-size=32 / tu-inter-depth=2 / tu-intra-depth=2 / limit-tu=0 / qg-size=32 / qpmax=69 / qpmin=0 / ----- / cpuid=533541111039 / frame-threads=6 / numa-pools=54,- / log-level=2 / input-csp=1 / input-res=3840x1600 / interlace=0 / level-idc=0 / high-tier=1 / uhd-bd=0 / no-allow-non-conformance / no-repeat-headers / no-aud / hrd / info / hash=0 / no-temporal-layers / lookahead-slices=0 / no-splice / no-intra-refresh / no-ssim-rd / signhide / no-tskip / max-merge=3 / temporal-mvp / no-analyze-src-pics / no-sao-non-deblock / no-early-skip / no-rskip / no-fast-intra / no-tskip-fast / no-splitrd-skip / zone-count=0 / no-strict-cbr / no-rc-grain / no-const-vbv / sar=0 / overscan=0 / videoformat=5 / range=0 / colorprim=9 / transfer=16 / colormatrix=9 / chromaloc=0 / display-window=0 / master-display=G(13250,34500)B(7500,3000)R(34000,16000)WP(15635,16450)L(40000000,50)cll=823,312 / min-luma=0 / max-luma=1023 / log2-max-poc-lsb=8 / vui-timing-info / vui-hrd-info / slices=1 / no-opt-qp-pps / no-opt-ref-list-length-pps / no-multi-pass-opt-rps / scenecut-bias=0.05 / no-opt-cu-delta-qp / no-aq-motion / hdr / hdr-opt / no-dhdr10-opt / no-idr-recovery-sei / analysis-reuse-level=5 / scale-factor=0 / refine-intra=0 / refine-inter=0 / refine-mv=0 / refine-ctu-distortion=0 / no-limit-sao / ctu-info=0 / no-lowpass-dct / refine-analysis-type=0 / copy-pic=1 / max-ausize-factor=1.0 / no-dynamic-refine / no-single-sei / no-hevc-aq / no-svt / no-field / qp-adaptation-range=1.00
  35. Default                                  : Yes
  36. Forced                                   : No
  37. Color range                              : Limited
  38. Color primaries                          : BT.2020
  39. Transfer characteristics                 : PQ
  40. Matrix coefficients                      : BT.2020 non-constant
  41. Mastering display color primaries        : Display P3
  42. Mastering display luminance              : min: 0.0050 cd/m2, max: 4000 cd/m2
  43. Maximum Content Light Level              : 823 cd/m2
  44. Maximum Frame-Average Light Level        : 312 cd/m2
  45. Audio #1
  46. ID                                       : 2
  47. Format                                   : MLP FBA 16-ch
  48. Format/Info                              : Meridian Lossless Packing FBA with 16-channel presentation
  49. Commercial name                          : Dolby TrueHD with Dolby Atmos
  50. Codec ID                                 : A_TRUEHD
  51. Duration                                 : 1 h 37 min
  52. Bit rate mode                            : Variable
  53. Bit rate                                 : 4 824 kb/s
  54. Maximum bit rate                         : 7 926 kb/s
  55. Channel(s)                               : 8 channels
  56. Channel layout                           : L R C LFE Ls Rs Lb Rb
  57. Sampling rate                            : 48.0 kHz
  58. Frame rate                               : 1 200.000 FPS (40 SPF)
  59. Compression mode                         : Lossless
  60. Stream size                              : 3.28 GiB (21%)
  61. Title                                    : 英语全景声
  62. Language                                 : English
  63. Default                                  : Yes
  64. Forced                                   : No
  65. Number of dynamic objects                : 13
  66. Bed channel count                        : 1 channel
  67. Bed channel configuration                : LFE
  68. Audio #2
  69. ID                                       : 3
  70. Format                                   : AC-3
  71. Format/Info                              : Audio Coding 3
  72. Commercial name                          : Dolby Digital
  73. Codec ID                                 : A_AC3
  74. Duration                                 : 1 h 37 min
  75. Bit rate mode                            : Constant
  76. Bit rate                                 : 640 kb/s
  77. Channel(s)                               : 6 channels
  78. Channel layout                           : L R C LFE Ls Rs
  79. Sampling rate                            : 48.0 kHz
  80. Frame rate                               : 31.250 FPS (1536 SPF)
  81. Compression mode                         : Lossy
  82. Stream size                              : 446 MiB (3%)
  83. Title                                    : 英语AC-3
  84. Language                                 : English
  85. Service kind                             : Complete Main
  86. Default                                  : No
  87. Forced                                   : No
  88. Audio #3
  89. ID                                       : 4
  90. Format                                   : AC-3
  91. Format/Info                              : Audio Coding 3
  92. Commercial name                          : Dolby Digital
  93. Codec ID                                 : A_AC3
  94. Duration                                 : 1 h 37 min
  95. Bit rate mode                            : Constant
  96. Bit rate                                 : 640 kb/s
  97. Channel(s)                               : 6 channels
  98. Channel layout                           : L R C LFE Ls Rs
  99. Sampling rate                            : 48.0 kHz
  100. Frame rate                               : 31.250 FPS (1536 SPF)
  101. Compression mode                         : Lossy
  102. Stream size                              : 446 MiB (3%)
  103. Title                                    : 八一国语AC-3
  104. Language                                 : Chinese
  105. Service kind                             : Complete Main
  106. Default                                  : No
  107. Forced                                   : No
  108. Text #1
  109. ID                                       : 5
  110. Format                                   : PGS
  111. Muxing mode                              : zlib
  112. Codec ID                                 : S_HDMV/PGS
  113. Codec ID/Info                            : Picture based subtitle format used on BDs/HD-DVDs
  114. Duration                                 : 1 h 30 min
  115. Bit rate                                 : 25.1 kb/s
  116. Count of elements                        : 2076
  117. Stream size                              : 16.3 MiB (0%)
  118. Title                                    : 英文SDH
  119. Language                                 : English
  120. Default                                  : No
  121. Forced                                   : No
  122. Text #2
  123. ID                                       : 6
  124. Format                                   : PGS
  125. Muxing mode                              : zlib
  126. Codec ID                                 : S_HDMV/PGS
  127. Codec ID/Info                            : Picture based subtitle format used on BDs/HD-DVDs
  128. Duration                                 : 1 h 27 min
  129. Bit rate                                 : 16.0 kb/s
  130. Count of elements                        : 1636
  131. Stream size                              : 10.0 MiB (0%)
  132. Title                                    : 国配简中
  133. Language                                 : Chinese
  134. Default                                  : Yes
  135. Forced                                   : No
  136. Text #3
  137. ID                                       : 7
  138. Format                                   : PGS
  139. Muxing mode                              : zlib
  140. Codec ID                                 : S_HDMV/PGS
  141. Codec ID/Info                            : Picture based subtitle format used on BDs/HD-DVDs
  142. Duration                                 : 1 h 27 min
  143. Bit rate                                 : 24.9 kb/s
  144. Count of elements                        : 1279
  145. Stream size                              : 15.6 MiB (0%)
  146. Title                                    : 简中英
  147. Language                                 : Chinese
  148. Default                                  : No
  149. Forced                                   : No
  150. Menu
  151. 00:00:00.000                             : :Chapter 01
  152. 00:03:00.597                             : :Chapter 02
  153. 00:08:10.949                             : :Chapter 03
  154. 00:14:00.757                             : :Chapter 04
  155. 00:19:10.608                             : :Chapter 05
  156. 00:25:59.057                             : :Chapter 06
  157. 00:33:09.738                             : :Chapter 07
  158. 00:38:30.808                             : :Chapter 08
  159. 00:43:21.140                             : :Chapter 09
  160. 00:46:56.105                             : :Chapter 10
  161. 00:51:11.944                             : :Chapter 11
  162. 00:54:18.797                             : :Chapter 12
  163. 00:58:37.723                             : :Chapter 13
  164. 01:01:58.048                             : :Chapter 14
  165. 01:05:09.989                             : :Chapter 15
  166. 01:09:56.776                             : :Chapter 16
  167. 01:15:40.619                             : :Chapter 17
  168. 01:17:43.659                             : :Chapter 18
  169. 01:25:44.931                             : :Chapter 19
  170. 01:28:38.647                             : :Chapter 20
复制代码




TAGS 奇幻 冒险 /

磁力链:
  • magnet:?xt=urn:btih:758D8ED7FE9682AD747133FF0FF547371B493A00
上传的附件:
BT9527电影天堂 1、BT9527电影天堂提供的BT文件均来源于互联网抓取,只供网友学习交流、技术提升使用。
2、我们遵守BitTorrent点对点协议原则,任何版权问题请联系原资源发布商,我们不处理任何版权纠纷,谢谢!如有争议请联系邮箱:BT9527#hotmail.com(#换成@)
3、如果您发现某页面或地址有错误,请联系站长邮箱BT9527#hotmail.com(#换成@),我们会尽快处理。您的热心是对BT9527电影天堂最大的支持。
4、本站建议去正规影院观看电影以支持电影行业发展。
最新回复 (0)

你可以在 登录 or 注册 后,对此帖发表评论!

返回