南征北战[国语配音].Nan.Zheng.Bei.Zhan.1952.1080p.WEB-DL.H264.AAC-HDBWEB 5.25GB

版主小s 3月前 262



◎译  名 南征北战
◎年  代 1952
◎产  地 中国大陆
◎类  别 剧情 / 战争
◎语  言 汉语普通话
◎上映日期 1952
◎IMDb链接 https://www.imdb.com/title/tt0352615/
◎豆瓣评分 7.4/10 (4959人评价)
◎豆瓣链接 https://movie.douban.com/subject/1463390/
◎片  长 122分钟
◎导  演 成荫 Yin Cheng (id:1280602)
       汤晓丹 Xiaodan Tang (id:1035544)
◎编  剧 沈西蒙 Ximeng Shen (id:1401288)
       沈默君 Mojun Shen (id:1322556)
       顾宝璋 Baozhang Gu (id:1408550)
◎演  员 陈戈 Ge Chen (id:1329948)
       冯喆 Zhe Feng (id:1313879)
       汤化达 Huada Tang (id:1329949)
       王力 Li Wang (id:1455923)
       张瑞芳 Ruifang Zhang (id:1021904)
       凌之浩 Zhihao Ling (id:1335535)
       孙道临 Daolin Sun (id:1040344)
       黄二彭 Erpeng Huang (id:1456604)
       崔玉梅 Yumei Cui (id:1456603)
       张庆芬 Qingfen Zhang (id:1449879)
       张晰 Xi Zhang (id:1456590)
       李保名 Baoming Li (id:1456599)
       安利 Li An (id:1456602)
       刘兵 Bing Liu (id:1456601)
       王声振 Shengzhen Wang (id:1456600)
       茅茸 Rong Mao (id:1456171)
       潘文展 Wenzhan Pan (id:1386603)
       穆宏 Hong Mu (id:1361065)
       项堃 Kun Xiang (id:1016040)
       铁牛 Niu Tie (id:1348301)
       张鸿眉 Hongmei Zhang (id:1324557)
       白穆 Mu Bai (id:1330053)
       天然 Ran Tian (id:1400706)
       方伯 Bo Fang (id:1400745)
       阳华 Hua Yang (id:1375617)
       孙永平 Yongping Sun (id:1316791)
       刘沛然 Peiran Liu (id:1333604)
       布加里 Jiali Bu (id:1431304)
       仲星火 Xinghuo Zhong (id:1274899)
       王琪 Qi Wang (id:1356276)
       董霖 Lin Dong (id:1401538)
       强明 Ming Qiang (id:1400760)
       黄贻钧 Yijun Huang (id:1346508)
       葛炎 Yan Ge (id:1381389)
       鞠蔚 Wei Ju (id:1437739)
       沈维康 Weikang Shen (id:1449313)
       张宏康 Hongkang Zhang (id:1455915)
       顾温厚 Wenhou Gu (id:1428311)
       邱以仁 Yiren Qiu (id:1380925)
       方鹤鸣 Heming Fang (id:1456594)
       何庚年 Gengnian He (id:1456164)
       朱今明 Jinming Zhu (id:1366227)
       陈祥兴 Xiangxing Chen (id:1361008)
       陈曦 Chen Xi (id:1361037)
       徐克己 Keji Xu (id:1422296)
       陈波生 Bosheng Chen (id:1455920)
       翁世涛 Shitao Weng (id:1456168)
       韩尚义 Shangyi Han (id:1401095)
       李永周 Yongzhou Li (id:1401978)
       罗雨秋 Yuqiu Luo (id:1456596)
       韩辛 Xin Han (id:1401977)
       马云宝 Yunbao Ma (id:1456597)
       支光 Guang Zhi (id:1436000)
       达旭 Xu Da (id:1436080)
       周梦雷 Menglei Zhou (id:1456167)
       蒋幼安 You'an Jiang (id:1456085)
       赵小亭 Xiaoting Zhao (id:1403132)
       王云 Yun Wang (id:1430612)
       张芳青 Fangqing Zhang (id:1456592)
       祝宏纲 Honggang Zhu (id:1403452)
       王炎 Yan Wang (id:1322550)
       张望 Wang Zhang (id:1456591)
       周恒良 Hengliang Zhou (id:1424161)
       赵斌 Bin Zhao (id:1456595)
       刘广阶 Guangjie Liu (id:1416355)
       苗振宇 Zhenyu Miao (id:1401541)
       薛志昌 Zhichang Xue (id:1428554)
       戈永良 Yongliang Ge (id:1402092)
       戴金生 Jinsheng Dai (id:1456598)
       周家生 Jiasheng Zhou (id:1456166)
       陈默 Mo Chen (id:1456170)
       查瑞根 Ruigen Zha (id:1456593)
       邓一民 Yimin Deng (id:1367879)
       王晓 Xiao Wang (id:1456921)

◎简  介
  1947年初,解放军华东部队在苏北七战七捷后,进行战略性转移,一营高营长(冯喆 饰)率领部队北撤,在山东桃村集结待命。不少战士和老乡都想不通,高营长和女村长赵玉敏(张瑞芳 饰)耐心给大家做工作。此时蒋军共出动25个师的兵力,企图造成南北夹击。我军在桃村大沙河阻击南线敌人六昼曰,主力部队集中到风凰山围歼北线的国民党李军长(阳华 饰)率领的七个师。高营长接到师长(陈戈 饰)命令抢占摩天岭高地,以阻击敌军张军长(项堃 饰)率领的增援部队,李军长率领的部队已被我军全歼并活捉李军长。高营长又率领部队乘胜追击张军长率领的部队,赵村长也带领游击队配合主力部队,切断敌人退路,又绞断敌人企图炸毁桥梁的炸药导火线,保住了大桥。一场大战开始了......

  1. ##### MediaInfo ######
  2. General
  3. Complete name                            : 南征北战.Nan.Zheng.Bei.Zhan.1952.1080p.WEB-DL.H264.AAC-HDBWEB.mp4
  4. Format                                   : MPEG-4
  5. Format profile                           : Base Media
  6. Codec ID                                 : isom (isom/iso2/avc1/mp41)
  7. File size                                : 5.25 GiB
  8. Duration                                 : 2 h 2 min
  9. Overall bit rate mode                    : Variable
  10. Overall bit rate                         : 6 150 kb/s
  11. Writing application                      : OurTV Multimedia Platform
  12. Video
  13. ID                                       : 1
  14. Format                                   : AVC
  15. Format/Info                              : Advanced Video Codec
  16. Format profile                           : High@L4
  17. Format settings                          : CABAC / 3 Ref Frames
  18. Format settings, CABAC                   : Yes
  19. Format settings, Reference frames        : 3 frames
  20. Format settings, GOP                     : M=4, N=50
  21. Codec ID                                 : avc1
  22. Codec ID/Info                            : Advanced Video Coding
  23. Duration                                 : 2 h 2 min
  24. Source duration                          : 2 h 2 min
  25. Bit rate mode                            : Variable
  26. Bit rate                                 : 5 772 kb/s
  27. Maximum bit rate                         : 7 500 kb/s
  28. Width                                    : 1 920 pixels
  29. Height                                   : 1 080 pixels
  30. Display aspect ratio                     : 16:9
  31. Frame rate mode                          : Constant
  32. Frame rate                               : 25.000 FPS
  33. Color space                              : YUV
  34. Chroma subsampling                       : 4:2:0
  35. Bit depth                                : 8 bits
  36. Scan type                                : Progressive
  37. Bits/(Pixel*Frame)                       : 0.111
  38. Stream size                              : 4.93 GiB (94%)
  39. Source stream size                       : 5.14 GiB (98%)
  40. mdhd_Duration                            : 7335122
  41. Codec configuration box                  : avcC
  42. Audio
  43. ID                                       : 2
  44. Format                                   : AAC LC
  45. Format/Info                              : Advanced Audio Codec Low Complexity
  46. Codec ID                                 : mp4a-40-2
  47. Duration                                 : 2 h 2 min
  48. Bit rate mode                            : Variable
  49. Bit rate                                 : 125 kb/s
  50. Maximum bit rate                         : 128 kb/s / 128 kb/s
  51. Channel(s)                               : 2 channels
  52. Channel layout                           : L R
  53. Sampling rate                            : 48.0 kHz
  54. Frame rate                               : 46.875 FPS (1024 SPF)
  55. Compression mode                         : Lossy
  56. Stream size                              : 110 MiB (2%)
  57. Language                                 : Chinese
  58. Default                                  : Yes
  59. Alternate group                          : 1
复制代码




TAGS 剧情 战争 /

磁力链:
  • magnet:?xt=urn:btih:691290A4EA867A9B020EEA617ED6329E75609F48
上传的附件:
BT9527电影天堂 1、BT9527电影天堂提供的BT文件均来源于互联网抓取,只供网友学习交流、技术提升使用。
2、我们遵守BitTorrent点对点协议原则,任何版权问题请联系原资源发布商,我们不处理任何版权纠纷,谢谢!如有争议请联系邮箱:BT9527#hotmail.com(#换成@)
3、如果您发现某页面或地址有错误,请联系站长邮箱BT9527#hotmail.com(#换成@),我们会尽快处理。您的热心是对BT9527电影天堂最大的支持。
4、本站建议去正规影院观看电影以支持电影行业发展。
最新回复 (0)

你可以在 登录 or 注册 后,对此帖发表评论!

返回