狄仁杰之通天神教[国语配音/中文字幕].Di.Ren.Jie.2022.1080p.WEB-DL.H264.AAC-HDBWEB 0.77GB

版主小s 3月前 328



◎译  名 狄仁杰之通天神教
◎年  代 2021
◎产  地 中国大陆
◎类  别 剧情
◎语  言 汉语普通话
◎IMDb链接 https://www.imdb.com/title//
◎豆瓣链接 https://movie.douban.com/subject/35299981/
◎导  演 郝昭赫 Zhaohe Hao (id:1356035)
◎演  员 王梓权 Kaavie Wong (id:1378771)
       葛布 Gabriella (id:1341375)
       何育骏 Yujun He (id:1350445)
       楼佳悦 Artemis (id:1357207)
       孙蛟龙 Jiaolong Sun (id:1344879)
       王岗 Gang Wang (id:1335851)
       潘彦妃 Yanfei Pan (id:1326048)

◎简  介
  大唐光宅元年,武则天迁都洛阳,途中必经之地金平县发生了“食蔓鬼”索命的诡异杀人案,大理寺寺丞狄仁杰和同僚奉命前来调查,却惨遭埋伏损失惨重,狄仁杰成了唯一的幸存者。几经波折后狄仁杰获得了当地捕快展风的信任,两人携手要在武后到来前查清命案,捉拿幕后黑手。在当地小神婆唐婉儿的帮助下狄仁杰逐渐靠近真相,然而令他未想到的是,这场预谋已久的“食蔓鬼”案件,竟然和当朝统治者还有着莫大的联系......

  1. ##### MediaInfo ######
  2. General
  3. Complete name                            : 狄仁杰之通天神教.Di.Ren.Jie.2022.1080p.WEB-DL.H264.AAC-HDBWEB.mp4
  4. Format                                   : MPEG-4
  5. Format profile                           : Base Media
  6. Codec ID                                 : isom (isom/iso2/avc1/mp41)
  7. File size                                : 788 MiB
  8. Duration                                 : 1 h 15 min
  9. Overall bit rate mode                    : Variable
  10. Overall bit rate                         : 1 454 kb/s
  11. Writing application                      : OurTV Media Encoder
  12. Video
  13. ID                                       : 1
  14. Format                                   : AVC
  15. Format/Info                              : Advanced Video Codec
  16. Format profile                           : High@L5
  17. Format settings                          : CABAC / 6 Ref Frames
  18. Format settings, CABAC                   : Yes
  19. Format settings, Reference frames        : 6 frames
  20. Codec ID                                 : avc1
  21. Codec ID/Info                            : Advanced Video Coding
  22. Duration                                 : 1 h 15 min
  23. Bit rate                                 : 1 354 kb/s
  24. Width                                    : 1 920 pixels
  25. Height                                   : 816 pixels
  26. Display aspect ratio                     : 2.35:1
  27. Frame rate mode                          : Variable
  28. Frame rate                               : 25.000 FPS
  29. Minimum frame rate                       : 24.993 FPS
  30. Maximum frame rate                       : 25.007 FPS
  31. Color space                              : YUV
  32. Chroma subsampling                       : 4:2:0
  33. Bit depth                                : 8 bits
  34. Scan type                                : Progressive
  35. Bits/(Pixel*Frame)                       : 0.035
  36. Stream size                              : 734 MiB (93%)
  37. Color range                              : Limited
  38. Color primaries                          : BT.709
  39. Transfer characteristics                 : BT.709
  40. Matrix coefficients                      : BT.709
  41. Codec configuration box                  : avcC
  42. Audio
  43. ID                                       : 2
  44. Format                                   : AAC LC
  45. Format/Info                              : Advanced Audio Codec Low Complexity
  46. Codec ID                                 : mp4a-40-2
  47. Duration                                 : 1 h 15 min
  48. Bit rate mode                            : Variable
  49. Bit rate                                 : 93.4 kb/s
  50. Maximum bit rate                         : 96.0 kb/s
  51. Channel(s)                               : 2 channels
  52. Channel layout                           : L R
  53. Sampling rate                            : 48.0 kHz
  54. Frame rate                               : 46.875 FPS (1024 SPF)
  55. Compression mode                         : Lossy
  56. Stream size                              : 50.6 MiB (6%)
  57. Default                                  : Yes
  58. Alternate group                          : 1
复制代码




TAGS 剧情

磁力链:
  • magnet:?xt=urn:btih:DE2C5DE81E8BCC56E0ECB02701CFDC4AE9743B2E
上传的附件:
BT9527电影天堂 1、BT9527电影天堂提供的BT文件均来源于互联网抓取,只供网友学习交流、技术提升使用。
2、我们遵守BitTorrent点对点协议原则,任何版权问题请联系原资源发布商,我们不处理任何版权纠纷,谢谢!如有争议请联系邮箱:BT9527#hotmail.com(#换成@)
3、如果您发现某页面或地址有错误,请联系站长邮箱BT9527#hotmail.com(#换成@),我们会尽快处理。您的热心是对BT9527电影天堂最大的支持。
4、本站建议去正规影院观看电影以支持电影行业发展。
最新回复 (0)

你可以在 登录 or 注册 后,对此帖发表评论!

返回
发新帖