渴望[简繁英字幕].The.World.of.Kanako.2014.1080p.MUBI.WEB-DL.AAC2.0.x264-CTRLWEB 4.93GB

版主小s 4月前 1268



◎译  名 渴望 / 渴罪(港) / 渴望(台) / 渴求 / Kawaki / The World of Kanako
◎片  名 渇き。
◎年  代 2014
◎产  地 日本
◎类  别 悬疑
◎语  言 日语
◎上映日期 2014-06-27(日本)
◎IMDb链接 https://www.imdb.com/title/tt3108158/
◎豆瓣评分 6.6/10 (18241人评价)
◎豆瓣链接 https://movie.douban.com/subject/24973419/
◎片  长 118分钟
◎导  演 中岛哲也 Tetsuya Nakashima (id:1274495)
◎编  剧 中岛哲也 Tetsuya Nakashima (id:1274495)
       门间宣裕 Nobuhiro Monma (id:1345412)
       唯野未步子 Miako Tadano (id:1029791)
       深町秋生 Akio Fukamachi (id:1333673)
◎演  员 役所广司 K?ji Yakusho (id:1165478)
       小松菜奈 Nana Komatsu (id:1335340)
       妻夫木聪 Satoshi Tsumabuki (id:1037028)
       清水寻也 Hiroya Shimizu (id:1340015)
       二阶堂富美 Fumi Nikaidou (id:1315736)
       桥本爱 Ai Hashimoto (id:1275733)
       高杉真宙 Mahiro Takasugi (id:1317846)
       星野仁 Jin Hoshino (id:1343157)
       森川葵 Aoi morikawa (id:1321714)
       国村隼 Jun Kunimura (id:1041791)
       黑泽明日香 Asuka Kurosawa (id:1037865)
       青木崇高 Munetaka Aoki (id:1318594)
       小田切让 J? Odagiri (id:1007189)
       中谷美纪 Miki Nakatani (id:1014478)
       柳俊太郎 Shuntaro Yanagi (id:1323460)
       叶山奖之 Shono Hayama (id:1323959)
       友田彩也香 Ayaka Tomoda (id:1315534)
       上村海成 Kaisei Kamimura (id:1418516)
       麻美 Ami (id:1428123)
       中田绚千 Ayaka Nakata (id:1376770)
       大平峻也 Shunya Ohira (id:1379568)
       派谷惠美 Megumi Hatachiya (id:1306371)
       中岛广稀 Hiroki Nakajima (id:1376890)
       菅野洋子 Y?ko Kanno (id:1033255)
       阿藤正一 Sh?ichi At? (id:1312286)

◎简  介
  颓废堕落的中年人藤岛昭和(役所广司 饰)也曾拥有幸福美满的家庭,身为刑警的他因暴打前妻桐子(黑泽明日香 饰)的情人而被迫提前退休。在看不见未来的最低端,他接到桐子打来的电话,原来藤岛的女儿加奈子(小松菜奈 饰)已失踪多日。出于复杂的感情,这个粗鲁凶暴的男人风风火火展开调查,他走访了加奈子身边的人,包括高中同学森下(桥本爱 饰)和长野(森川葵 饰)、班主任东里惠(中谷美纪 饰)以及精神科医生辻村(国村隼 饰),从这些人的口中,却发现女儿天使般的外表下似乎住着一个可以让所有人堕落乃至遭遇不幸的魔鬼。藤岛全速奔跑 ,另一伙危险的人马也介入进来……                                    
                                本片根据深町秋生的推理小说《无尽的渴望》改编。

◎获奖情况 (共2项)
  第38届日本电影学院奖 (2015)
  最佳新人
   └──小松菜奈 (id:1335340)

  第39届报知映画赏 (2014)
  最佳新人奖
   └──小松菜奈 (id:1335340)

  1. ##### MediaInfo ######
  2. General
  3. Unique ID                                : 109838725913664019066106117716341666472 (0x52A22B4C0A8CB7B853A568052093B2A8)
  4. Complete name                            : The.World.of.Kanako.2014.1080p.MUBI.WEB-DL.AAC2.0.x264-CTRLWEB.mkv
  5. Format                                   : Matroska
  6. Format version                           : Version 4
  7. File size                                : 4.92 GiB
  8. Duration                                 : 1 h 59 min
  9. Overall bit rate                         : 5 920 kb/s
  10. Movie name                               : The.World.of.Kanako.2014
  11. Encoded date                             : UTC 2022-06-02 13:32:42
  12. Writing application                      : mkvmerge v65.0.0 ('Too Much') 64-bit
  13. Writing library                          : libebml v1.4.2 + libmatroska v1.6.4
  14. Video
  15. ID                                       : 1
  16. Format                                   : AVC
  17. Format/Info                              : Advanced Video Codec
  18. Format profile                           : High@L4
  19. Format settings                          : CABAC / 4 Ref Frames
  20. Format settings, CABAC                   : Yes
  21. Format settings, Reference frames        : 4 frames
  22. Codec ID                                 : V_MPEG4/ISO/AVC
  23. Duration                                 : 1 h 59 min
  24. Bit rate                                 : 5 872 kb/s
  25. Width                                    : 1 920 pixels
  26. Height                                   : 960 pixels
  27. Display aspect ratio                     : 2.000
  28. Frame rate mode                          : Constant
  29. Frame rate                               : 23.976 (23976/1000/53354) FPS
  30. Color space                              : YUV
  31. Chroma subsampling                       : 4:2:0
  32. Bit depth                                : 8 bits
  33. Scan type                                : Progressive
  34. Bits/(Pixel*Frame)                       : 0.133
  35. Stream size                              : 4.82 GiB (98%)
  36. Writing library                          : x264 core 155 r2917 0a84d98
  37. Encoding settings                        : cabac=1 / ref=3 / deblock=1:-1:-1 / analyse=0x3:0x113 / me=hex / subme=8 / psy=1 / psy_rd=1.00:0.15 / mixed_ref=1 / me_range=16 / chroma_me=1 / trellis=2 / 8x8dct=1 / cqm=0 / deadzone=21,11 / fast_pskip=1 / chroma_qp_offset=-3 / threads=30 / lookahead_threads=5 / sliced_threads=0 / nr=0 / decimate=1 / interlaced=0 / NTMzNTQ= / bluray_compat=0 / constrained_intra=0 / bframes=5 / b_pyramid=2 / b_adapt=1 / b_bias=0 / direct=3 / weightb=1 / open_gop=0 / weightp=2 / keyint=46 / keyint_min=24 / scenecut=0 / intra_refresh=0 / rc_lookahead=50 / rc=abr / mbtree=1 / bitrate=5872 / ratetol=1.0 / qcomp=0.60 / qpmin=0 / qpmax=69 / qpstep=4 / vbv_maxrate=9000 / vbv_bufsize=27000 / nal_hrd=none / filler=0 / NTMzNTQ=LmsMAP37EqsCpk / ip_ratio=1.40 / aq=1:1.00
  38. Language                                 : Japanese
  39. Default                                  : Yes
  40. Forced                                   : No
  41. Audio
  42. ID                                       : 2
  43. Format                                   : AAC LC
  44. Format/Info                              : Advanced Audio Codec Low Complexity
  45. Codec ID                                 : A_AAC-2
  46. Duration                                 : 1 h 59 min
  47. Bit rate                                 : 128 kb/s
  48. Channel(s)                               : 2 channels
  49. Channel layout                           : L R
  50. Sampling rate                            : 48.0 kHz
  51. Frame rate                               : 46.875 FPS (1024 SPF)
  52. Compression mode                         : Lossy
  53. Stream size                              : 109 MiB (2%)
  54. Title                                    : Japanese
  55. Language                                 : Japanese
  56. Default                                  : Yes
  57. Forced                                   : No
  58. Text #1
  59. ID                                       : 3
  60. Format                                   : UTF-8
  61. Codec ID                                 : S_TEXT/UTF8
  62. Codec ID/Info                            : UTF-8 Plain Text
  63. Duration                                 : 1 h 58 min
  64. Bit rate                                 : 33 b/s
  65. Count of elements                        : 1251
  66. Stream size                              : 28.7 KiB (0%)
  67. Language                                 : English
  68. Default                                  : Yes
  69. Forced                                   : No
  70. Text #2
  71. ID                                       : 4
  72. Format                                   : UTF-8
  73. Codec ID                                 : S_TEXT/UTF8
  74. Codec ID/Info                            : UTF-8 Plain Text
  75. Duration                                 : 1 h 55 min
  76. Bit rate                                 : 29 b/s
  77. Count of elements                        : 1272
  78. Stream size                              : 25.4 KiB (0%)
  79. Title                                    : Chinese Simplified
  80. Language                                 : Chinese
  81. Default                                  : Yes
  82. Forced                                   : No
  83. Text #3
  84. ID                                       : 5
  85. Format                                   : UTF-8
  86. Codec ID                                 : S_TEXT/UTF8
  87. Codec ID/Info                            : UTF-8 Plain Text
  88. Duration                                 : 1 h 55 min
  89. Bit rate                                 : 29 b/s
  90. Count of elements                        : 1272
  91. Stream size                              : 25.4 KiB (0%)
  92. Title                                    : Chinese Traditional
  93. Language                                 : Chinese
  94. Default                                  : Yes
  95. Forced                                   : No


TAGS 悬疑

磁力链:
  • magnet:?xt=urn:btih:ED25E46D7F4A84645BAC5E26E3F04312161E6414
上传的附件:
BT9527电影天堂 1、BT9527电影天堂提供的BT文件均来源于互联网抓取,只供网友学习交流、技术提升使用。
2、我们遵守BitTorrent点对点协议原则,任何版权问题请联系原资源发布商,我们不处理任何版权纠纷,谢谢!如有争议请联系邮箱:BT9527#hotmail.com(#换成@)
3、如果您发现某页面或地址有错误,请联系站长邮箱BT9527#hotmail.com(#换成@),我们会尽快处理。您的热心是对BT9527电影天堂最大的支持。
4、本站建议去正规影院观看电影以支持电影行业发展。
最新回复 (0)

你可以在 登录 or 注册 后,对此帖发表评论!

返回
发新帖