歌剧魅影[中文字幕].The.Phantom.Of.The.Opera.2004.2160p.HDR.UHD.BluRay.DD5.1.x265-10bit-ENTHD 14.45GB

版主小s 27天前 149

歌剧魅影[中文字幕].The.Phantom.Of.The.Opera.2004.2160p.HDR.UHD.BluRay.DD5.1.x265-10bit-ENTHD 14.45GB

◎译  名 歌剧魅影 / 歌声魅影(港) / 安德鲁洛伊韦伯之歌剧魅影(台) / 歌剧院幽灵 / 剧院魅影
◎片  名 The Phantom of the Opera
◎年  代 2004
◎产  地 英国 / 美国
◎类  别 剧情 / 爱情 / 惊悚 / 音乐
◎语  言 英语 / 意大利语
◎上映日期 2004-12-10(英国) / 2004-12-22(美国)
◎IMDb链接 https://www.imdb.com/title/tt0293508/
◎豆瓣评分 8.5/10 (151974人评价)
◎豆瓣链接 https://movie.douban.com/subject/1291554/
◎片  长 143 分钟
◎导  演 乔·舒马赫 Joel Schumacher (id:1049637)
◎编  剧 加斯顿·勒鲁 Gaston Leroux (id:1048410)
       安德鲁·洛伊德·韦伯 Andrew Lloyd Webber (id:1000309)
       乔·舒马赫 Joel Schumacher (id:1049637)
◎演  员 杰拉德·巴特勒 Gerard Butler (id:1040500)
       埃米·罗森 Emmy Rossum (id:1021998)
       帕特里克·威尔森 Patrick Wilson (id:1006919)
       米兰达·理查森 Miranda Richardson (id:1031812)
       明妮·德里弗 Minnie Driver (id:1004602)
       塞伦·希德 Ciarán Hinds (id:1004586)
       西蒙·卡洛 Simon Callow (id:1019096)
       维克多·麦奎尔 Victor McGuire (id:1121768)
       詹妮弗·艾莉森 Jennifer Ellison (id:1018130)
       穆雷·梅尔文 Murray Melvin (id:1275081)
       凯文·麦克纳利 Kevin McNally (id:1123046)
       詹姆斯·弗雷特 James Fleet (id:1325362)
       保罗·布洛克 Paul Brooke (id:1076545)
       莱明·卡莱姆罗 Ramin Karimloo (id:1206123)
       特里·罗林斯 Terry Rawlings (id:1295281)
       保罗·卡比 Paul Kirby (id:1288615)
       John Fenner John Fenner (id:1283565)
       西莉亚·博巴克 Celia Bobak (id:1278851)
       亚历山德拉·伯恩 Alexandra Byrne (id:1279783)
       Maralyn Sherman Maralyn Sherman (id:1297437)
       珍妮·希尔科尔 Jenny Shircore (id:1297495)
       苏珊·詹森 Suzanne Jansen (id:1287596)
       洛丽雅·谢泼德 Loulia Sheppard (id:1297417)
       乔恩·亨利·戈登 Jon Henry Gordon (id:1285185)
       Tricia Cameron Tricia Cameron (id:1276507)
       克拉斯·汉克 Claas Henke (id:1286435)
       肖恩·安德鲁·法登 Sean Andrew Faden (id:1283408)
       内森·麦克基尼斯 Nathan McGuinness (id:1291611)
       José Granell José Granell (id:1285285)
       Nigel Stone Nigel Stone (id:1298505)
       Laurent Ben-Mimoun Laurent Ben-Mimoun (id:1301846)
       David Jones David Jones (id:1303780)

◎简  介
  巴黎歌剧院合唱团的新人克莉斯汀(艾米?罗苏姆 Emmy Rossum 饰)最近进步神速,全因剧院内的一间古老房间内每晚都会传出一把优美的男声向她传授歌唱技巧。这个良师益友其实是一个人称“剧院魅影”(杰拉德?巴特勒 Gerard Butler 饰)的人,此人因样貌丑陋,自小便被父母抛弃,戴着面具隐居在剧院的地下室。“剧院魅影”内心其实深爱着克莉斯汀。                                    
                                一次偶然的机会,克莉斯汀有幸担当一部歌剧的主角。凭借从“剧院魅影”那里学得的丰富的歌唱技巧,克莉斯汀一炮而红,并被年轻英俊的剧院赞助人拉乌尔(帕特里克?威尔逊 Patrick Wilson 饰)看上了。两个年轻人很快堕入了爱河。“剧院魅影”伤透了心,认为是拉乌尔抢走了克莉斯汀,准备上演一出爱情复仇的大戏……

◎获奖情况 (共7项)
  第77届奥斯卡金像奖 (2005)
  最佳摄影(提名)
   └──约翰·马西森 (id:1045353)
  最佳艺术指导(提名)
  最佳原创歌曲(提名)

  第62届金球奖 (2005)
  电影类 最佳音乐/喜剧片(提名)
  电影类 音乐/喜剧片最佳女主角(提名)
   └──埃米·罗森 (id:1021998)
  电影类 最佳原创歌曲(提名)

  第29届日本电影学院奖 (2006)
  最佳外语片(提名)

  1. ##### MediaInfo ######
  2. General
  3. Unique ID                                : 164798257318818333872329570396094432895 (0x7BFAFD67286BA02723B0DF671871867F)
  4. Complete name                            : The.Phantom.Of.The.Opera.2004.2160p.HDR.UHD.BluRay.DD5.1.x265-10bit-ENTHD.mkv
  5. Format                                   : Matroska
  6. Format version                           : Version 4
  7. File size                                : 14.4 GiB
  8. Duration                                 : 2 h 21 min
  9. Overall bit rate                         : 14.7 Mb/s
  10. Movie name                               : The Phantom Of The Opera 2004 2160p HDR UHD BluRay DD5.1 x265-10bit-HDS
  11. Encoded date                             : UTC 2022-06-02 04:57:18
  12. Writing application                      : mkvmerge v67.0.0 ('Under Stars') 64-bit
  13. Writing library                          : libebml v1.4.2 + libmatroska v1.6.4
  14. Video
  15. ID                                       : 1
  16. Format                                   : HEVC
  17. Format/Info                              : High Efficiency Video Coding
  18. Format profile                           : Main 10@L5.1@High
  19. HDR format                               : SMPTE ST 2086, HDR10 compatible
  20. Codec ID                                 : V_MPEGH/ISO/HEVC
  21. Duration                                 : 2 h 21 min
  22. Bit rate                                 : 14.0 Mb/s
  23. Width                                    : 3 840 pixels
  24. Height                                   : 1 544 pixels
  25. Display aspect ratio                     : 2.487
  26. Frame rate mode                          : Constant
  27. Frame rate                               : 23.976 (24000/1001/53354) FPS
  28. Color space                              : YUV
  29. Chroma subsampling                       : 4:2:0
  30. Bit depth                                : 10 bits
  31. Bits/(Pixel*Frame)                       : 0.098
  32. Stream size                              : 13.8 GiB (95%)
  33. Title                                    : @HDSky
  34. Writing library                          : x265 - H.265/HEVC codec
  35. Default                                  : Yes
  36. Forced                                   : No
  37. Color range                              : Limited
  38. Color primaries                          : BT.2020
  39. Transfer characteristics                 : PQ
  40. Matrix coefficients                      : BT.2020 non-constant
  41. Mastering display color primaries        : Display P3
  42. Mastering display luminance              : min: 0.0020 cd/m2, max: 1000 cd/m2
  43. Maximum Content Light Level              : 739 cd/m2
  44. Maximum Frame-Average Light Level        : 331 cd/m2
  45. Audio
  46. ID                                       : 2
  47. Format                                   : AC-3
  48. Format/Info                              : Audio Coding 3
  49. Commercial name                          : Dolby Digital
  50. Codec ID                                 : A_AC3
  51. Duration                                 : 2 h 21 min
  52. Bit rate mode                            : Constant
  53. Bit rate                                 : 640 kb/s
  54. Channel(s)                               : 6 channels
  55. Channel layout                           : L R C LFE Ls Rs
  56. Sampling rate                            : 48.0 kHz
  57. Frame rate                               : 31.250 FPS (1536 SPF)
  58. Compression mode                         : Lossy
  59. Stream size                              : 646 MiB (4%)
  60. Title                                    : English
  61. Language                                 : English
  62. Service kind                             : Complete Main
  63. Default                                  : Yes
  64. Forced                                   : No
  65. Text #1
  66. ID                                       : 3
  67. Format                                   : PGS
  68. Muxing mode                              : zlib
  69. Codec ID                                 : S_HDMV/PGS
  70. Codec ID/Info                            : Picture based subtitle format used on BDs/HD-DVDs
  71. Duration                                 : 2 h 15 min
  72. Bit rate                                 : 20.4 kb/s
  73. Count of elements                        : 2742
  74. Stream size                              : 19.7 MiB (0%)
  75. Title                                    : CHS
  76. Language                                 : Chinese
  77. Default                                  : Yes
  78. Forced                                   : No
  79. Text #2
  80. ID                                       : 4
  81. Format                                   : PGS
  82. Muxing mode                              : zlib
  83. Codec ID                                 : S_HDMV/PGS
  84. Codec ID/Info                            : Picture based subtitle format used on BDs/HD-DVDs
  85. Duration                                 : 2 h 15 min
  86. Bit rate                                 : 21.2 kb/s
  87. Count of elements                        : 2742
  88. Stream size                              : 20.5 MiB (0%)
  89. Title                                    : CHT
  90. Language                                 : Chinese
  91. Default                                  : Yes
  92. Forced                                   : No
  93. Menu
  94. 00:00:00.000                             : en:第 01 章
  95. 00:04:46.244                             : en:第 02 章
  96. 00:07:32.744                             : en:第 03 章
  97. 00:13:56.586                             : en:第 04 章
  98. 00:17:29.674                             : en:第 05 章
  99. 00:22:21.423                             : en:第 06 章
  100. 00:26:00.601                             : en:第 07 章
  101. 00:28:35.380                             : en:第 08 章
  102. 00:30:59.274                             : en:第 09 章
  103. 00:34:33.321                             : en:第 10 章
  104. 00:41:09.008                             : en:第 11 章
  105. 00:43:46.916                             : en:第 12 章
  106. 00:47:35.478                             : en:第 13 章
  107. 00:55:02.674                             : en:第 14 章
  108. 00:58:29.923                             : en:第 15 章
  109. 01:03:05.448                             : en:第 16 章
  110. 01:05:50.196                             : en:第 17 章
  111. 01:08:45.580                             : en:第 18 章
  112. 01:14:22.375                             : en:第 19 章
  113. 01:16:43.015                             : en:第 20 章
  114. 01:26:03.658                             : en:第 21 章
  115. 01:30:18.038                             : en:第 22 章
  116. 01:33:49.040                             : en:第 23 章
  117. 01:37:56.704                             : en:第 24 章
  118. 01:41:42.138                             : en:第 25 章
  119. 01:45:46.840                             : en:第 26 章
  120. 01:48:57.698                             : en:第 27 章
  121. 01:54:29.571                             : en:第 28 章
  122. 01:57:04.184                             : en:第 29 章
  123. 02:01:53.598                             : en:第 30 章
  124. 02:07:38.609                             : en:第 31 章
  125. 02:11:45.147                             : en:第 32 章
复制代码




TAGS 剧情 惊悚 爱情 音乐 /

磁力链:
  • magnet:?xt=urn:btih:9EC70F9C7A6F1508DB2FF6A8BDCC2E563FFC5FEB
上传的附件:
BT9527电影天堂 1、BT9527电影天堂提供的BT文件均来源于互联网抓取,只供网友学习交流、技术提升使用。
2、我们遵守BitTorrent点对点协议原则,任何版权问题请联系原资源发布商,我们不处理任何版权纠纷,谢谢!如有争议请联系邮箱:BT9527#hotmail.com(#换成@)
3、如果您发现某页面或地址有错误,请联系站长邮箱BT9527#hotmail.com(#换成@),我们会尽快处理。您的热心是对BT9527电影天堂最大的支持。
4、本站建议去正规影院观看电影以支持电影行业发展。
最新回复 (0)

你可以在 登录 or 注册 后,对此帖发表评论!

返回
发新帖