亡命救护车[中文字幕].Ambulance.2022.Bluray.1080p.TrueHD7.1.x265.10bit-CTRLHD 9.31GB

版主小s 4月前 271



◎译  名 亡命救护车 / 救护车 / 劫命救护(台) / 十字冲锋车(港)
◎片  名 Ambulance
◎年  代 2022
◎产  地 美国
◎类  别 动作 / 犯罪
◎语  言 英语
◎上映日期 2022-04-22(中国大陆) / 2022-04-08(美国)
◎IMDb链接 https://www.imdb.com/title/tt4998632/
◎豆瓣评分 5.6/10 (19743人评价)
◎豆瓣链接 https://movie.douban.com/subject/35250237/
◎片  长 136分钟
◎导  演 迈克尔·贝 Michael Bay (id:1027776)
◎编  剧 克里斯·费达克 Chris Fedak (id:1319798)
       劳里茨·茫奇-彼得森 Laurits Munch-Petersen (id:1126201)
       拉斯·安德烈亚斯·佩德森 Lars Andreas Pedersen (id:1010432)
◎演  员 杰克·吉伦哈尔 Jake Gyllenhaal (id:1048002)
       叶海亚·阿卜杜勒-迈丁 Yahya Abdul-Mateen II (id:1374708)
       艾莎·冈萨雷斯 Eiza González (id:1233270)
       加瑞特·迪拉胡特 Garret Dillahunt (id:1036365)
       基尔·奥唐纳 Keir O'Donnell (id:1040575)
       杰克逊·怀特 Jackson White (id:1425585)
       奥利维亚·斯坦布利亚 Olivia Stambouliah (id:1256030)
       摩西·英格拉姆 Moses Ingram (id:1446415)
       科林·伍德尔 Colin Woodell (id:1340880)
       塞德里克·桑德斯 Cedric Sanders (id:1240253)
       A·马丁内斯 A Martinez (id:1125486)
       杰西·加西亚 Jesse Garcia (id:1339720)
       何塞·巴勃罗·坎蒂略 Jose Pablo Cantillo (id:1000476)
       威尔 Wale (id:1253455)
       德文·隆恩 Devan Long (id:1413539)
       维克多·高佳卡 Victor Gojcaj (id:1226282)
       杰米·麦克布莱德 Jamie McBride (id:1000740)
       珍·普罗斯克 Jenn Proske (id:1315966)
       凯利·陈 Kayli Tran (id:1423781)
       布兰登·罗宾逊 Brendan Robinson (id:1316961)
       安娜贝勒·格维奇 Annabelle Gurwitch (id:1041271)
       刘慈慈 Cici Lau (id:1438404)
       切尔西哈里斯 Chelsea Harris (id:1222987)
       安迪·费儒 Andy Favreau (id:1390048)
       艾恩 Ayne (id:1450293)

◎简  介
  本片翻拍自2005年同名丹麦电影,功勋退伍士兵威尔·夏普(叶海亚·阿卜杜勒-迈丁 饰)为救妻子情急之下找到养兄弟丹尼(杰克·吉伦哈尔 饰)求助,却因此被卷入洛杉矶史上最大金额银行抢劫案。在脱身中出现的致命差池,迫使二人挟持了一辆载有一名垂危警察和一位顶尖急救专家卡姆·汤普森(艾莎·冈萨雷斯 饰)的救护车。在这场持久的高速追逐中,威尔和丹尼极力躲避全城警察的大规模搜捕、保证人质的生命安全、努力不对兄弟拔刀相向,同时完成这场洛杉矶有史以来最疯狂且惊险刺激的逃脱。

  1. ##### MediaInfo ######
  2. General
  3. Unique ID                                : 196723936172014086382467558723276978661 (0x93FFA6E5E071548BDE733E9DBB8739E5)
  4. Complete name                            : Ambulance.2022.Bluray.1080p.TrueHD7.1.x265.10bit-GameHD.mkv
  5. Format                                   : Matroska
  6. Format version                           : Version 4
  7. File size                                : 9.31 GiB
  8. Duration                                 : 2 h 16 min
  9. Overall bit rate mode                    : Variable
  10. Overall bit rate                         : 9 777 kb/s
  11. Encoded date                             : UTC 2022-06-03 00:00:27
  12. Writing application                      : mkvmerge v62.0.0 ('Apollo') 64-bit
  13. Writing library                          : libebml v1.4.2 + libmatroska v1.6.4
  14. Video
  15. ID                                       : 1
  16. Format                                   : HEVC
  17. Format/Info                              : High Efficiency Video Coding
  18. Format profile                           : Main 10@L4@Main
  19. Codec ID                                 : V_MPEGH/ISO/HEVC
  20. Duration                                 : 2 h 16 min
  21. Bit rate                                 : 6 442 kb/s
  22. Width                                    : 1 920 pixels
  23. Height                                   : 804 pixels
  24. Display aspect ratio                     : 2.40:1
  25. Frame rate mode                          : Constant
  26. Frame rate                               : 23.976 (23976/1000/53354) FPS
  27. Color space                              : YUV
  28. Chroma subsampling                       : 4:2:0
  29. Bit depth                                : 10 bits
  30. Bits/(Pixel*Frame)                       : 0.174
  31. Stream size                              : 6.13 GiB (66%)
  32. Writing library                          : x265 3.5+10-82786fccc:[Windows][MSVC 1929][64 bit] 10bit
  33. Encoding settings                        : cpuid=533541111039 / frame-threads=5 / numa-pools=36,36 / wpp / no-pmode / no-pme / no-psnr / no-ssim / log-level=2 / input-csp=1 / input-res=1920x804 / interlace=0 / total-frames=0 / level-idc=0 / high-tier=1 / uhd-bd=0 / ref=6 / no-allow-non-conformance / repeat-headers / annexb / no-aud / no-eob / no-eos / no-hrd / info / hash=0 / no-temporal-layers / no-open-gop / min-keyint=23 / keyint=250 / gop-lookahead=0 / bframes=8 / b-adapt=2 / b-pyramid / bframe-bias=0 / rc-lookahead=24 / lookahead-slices=5 / NTMzNTQ=uuDQuD2mJt9fsCf / scenecut=40 / hist-scenecut=0 / radl=0 / no-splice / no-intra-refresh / ctu=64 / min-cu-size=8 / no-rect / no-amp / max-tu-size=32 / tu-inter-depth=1 / tu-intra-depth=1 / limit-tu=0 / rdoq-level=0 / dynamic-rd=0.00 / no-ssim-rd / signhide / no-tskip / nr-intra=0 / nr-inter=0 / no-constrained-intra / no-strong-intra-smoothing / max-merge=3 / limit-refs=1 / no-limit-modes / me=2 / subme=7 / merange=48 / temporal-mvp / no-frame-dup / no-hme / weightp / weightb / no-analyze-src-pics / deblock=0:0 / sao / no-sao-non-deblock / rd=4 / selective-sao=4 / early-skip / rskip / no-fast-intra / no-tskip-fast / no-cu-lossless / b-intra / no-splitrd-skip / rdpenalty=0 / psy-rd=2.00 / psy-rdoq=0.00 / no-rd-refine / no-lossless / cbqpoffs=0 / crqpoffs=0 / rc=crf / crf=16.0 / qcomp=0.60 / qpstep=4 / stats-write=0 / stats-read=0 / ipratio=1.40 / pbratio=1.30 / aq-mode=3 / aq-strength=1.00 / cutree / zone-count=0 / no-strict-cbr / qg-size=32 / no-rc-grain / qpmax=69 / qpmin=0 / no-const-vbv / sar=0 / overscan=0 / videoformat=5 / range=0 / colorprim=2 / transfer=2 / colormatrix=2 / chromaloc=0 / display-window=0 / cll=0,0 / min-luma=0 / max-luma=1023 / log2-max-poc-lsb=8 / vui-timing-info / vui-hrd-info / slices=1 / no-opt-qp-pps / no-opt-ref-list-length-pps / no-multi-pass-opt-rps / scenecut-bias=0.05 / hist-threshold=0.03 / no-opt-cu-delta-qp / aq-motion / no-hdr10 / no-hdr10-opt / no-dhdr10-opt / no-idr-recovery-sei / analysis-reuse-level=0 / analysis-save-reuse-level=0 / analysis-load-reuse-level=0 / scale-factor=0 / refine-intra=0 / refine-inter=0 / refine-mv=1 / refine-ctu-distortion=0 / no-limit-sao / ctu-info=0 / no-lowpass-dct / refine-analysis-type=0 / copy-pic=1 / max-ausize-factor=1.0 / no-dynamic-refine / no-single-sei / no-hevc-aq / no-svt / no-field / qp-adaptation-range=1.00 / scenecut-aware-qp=0conformance-window-offsets / right=0 / bottom=0 / NTMzNTQ= / decoder-max-rate=0 / no-vbv-live-multi-pass
  34. Default                                  : Yes
  35. Forced                                   : No
  36. Audio
  37. ID                                       : 2
  38. Format                                   : MLP FBA 16-ch
  39. Format/Info                              : Meridian Lossless Packing FBA with 16-channel presentation
  40. Commercial name                          : Dolby TrueHD with Dolby Atmos
  41. Codec ID                                 : A_TRUEHD
  42. Duration                                 : 2 h 16 min
  43. Bit rate mode                            : Variable
  44. Bit rate                                 : 3 147 kb/s
  45. Maximum bit rate                         : 5 253 kb/s
  46. Channel(s)                               : 8 channels
  47. Channel layout                           : L R C LFE Ls Rs Lb Rb
  48. Sampling rate                            : 48.0 kHz
  49. Frame rate                               : 1 200.000 FPS (40 SPF)
  50. Compression mode                         : Lossless
  51. Stream size                              : 3.00 GiB (32%)
  52. Language                                 : English
  53. Default                                  : Yes
  54. Forced                                   : No
  55. Number of dynamic objects                : 11
  56. Bed channel count                        : 1 channel
  57. Bed channel configuration                : LFE
  58. Text #1
  59. ID                                       : 3
  60. Format                                   : PGS
  61. Muxing mode                              : zlib
  62. Codec ID                                 : S_HDMV/PGS
  63. Codec ID/Info                            : Picture based subtitle format used on BDs/HD-DVDs
  64. Duration                                 : 2 h 12 min
  65. Bit rate                                 : 32.6 kb/s
  66. Count of elements                        : 4796
  67. Stream size                              : 30.9 MiB (0%)
  68. Language                                 : Chinese
  69. Default                                  : Yes
  70. Forced                                   : No
  71. Text #2
  72. ID                                       : 4
  73. Format                                   : PGS
  74. Muxing mode                              : zlib
  75. Codec ID                                 : S_HDMV/PGS
  76. Codec ID/Info                            : Picture based subtitle format used on BDs/HD-DVDs
  77. Duration                                 : 2 h 12 min
  78. Bit rate                                 : 33.1 kb/s
  79. Count of elements                        : 4796
  80. Stream size                              : 31.3 MiB (0%)
  81. Language                                 : Chinese
  82. Default                                  : Yes
  83. Forced                                   : No
  84. Text #3
  85. ID                                       : 5
  86. Format                                   : PGS
  87. Muxing mode                              : zlib
  88. Codec ID                                 : S_HDMV/PGS
  89. Codec ID/Info                            : Picture based subtitle format used on BDs/HD-DVDs
  90. Duration                                 : 2 h 12 min
  91. Bit rate                                 : 66.5 kb/s
  92. Count of elements                        : 4796
  93. Stream size                              : 62.9 MiB (1%)
  94. Language                                 : Chinese
  95. Default                                  : Yes
  96. Forced                                   : No
  97. Text #4
  98. ID                                       : 6
  99. Format                                   : PGS
  100. Muxing mode                              : zlib
  101. Codec ID                                 : S_HDMV/PGS
  102. Codec ID/Info                            : Picture based subtitle format used on BDs/HD-DVDs
  103. Duration                                 : 2 h 12 min
  104. Bit rate                                 : 66.9 kb/s
  105. Count of elements                        : 4796
  106. Stream size                              : 63.3 MiB (1%)
  107. Language                                 : Chinese
  108. Default                                  : Yes
  109. Forced                                   : No
  110. Text #5
  111. ID                                       : 7
  112. Format                                   : PGS
  113. Muxing mode                              : zlib
  114. Codec ID                                 : S_HDMV/PGS
  115. Codec ID/Info                            : Picture based subtitle format used on BDs/HD-DVDs
  116. Duration                                 : 2 h 11 min
  117. Bit rate                                 : 61.5 kb/s
  118. Count of elements                        : 5000
  119. Stream size                              : 58.0 MiB (1%)
  120. Language                                 : English
  121. Default                                  : Yes
  122. Forced                                   : No
  123. Menu
  124. 00:00:00.000                             : en:第 01 章
  125. 00:07:57.268                             : en:第 02 章
  126. 00:15:41.941                             : en:第 03 章
  127. 00:22:57.543                             : en:第 04 章
  128. 00:29:59.631                             : en:第 05 章
  129. 00:37:01.803                             : en:第 06 章
  130. 00:43:27.647                             : en:第 07 章
  131. 00:49:34.555                             : en:第 08 章
  132. 00:56:07.656                             : en:第 09 章
  133. 01:02:35.168                             : en:第 10 章
  134. 01:07:09.025                             : en:第 11 章
  135. 01:12:45.069                             : en:第 12 章
  136. 01:21:00.606                             : en:第 13 章
  137. 01:31:12.717                             : en:第 14 章
  138. 01:40:04.207                             : en:第 15 章
  139. 01:49:48.373                             : en:第 16 章
  140. 01:56:06.251                             : en:第 17 章
  141. 02:00:46.030                             : en:第 18 章
  142. 02:06:52.522                             : en:第 19 章
  143. 02:13:47.853                             : en:第 20 章
复制代码




TAGS 动作 犯罪 /

磁力链:
  • magnet:?xt=urn:btih:0F3C60CE6F09B2E521D31451DF71085CC94B11C1
上传的附件:
BT9527电影天堂 1、BT9527电影天堂提供的BT文件均来源于互联网抓取,只供网友学习交流、技术提升使用。
2、我们遵守BitTorrent点对点协议原则,任何版权问题请联系原资源发布商,我们不处理任何版权纠纷,谢谢!如有争议请联系邮箱:BT9527#hotmail.com(#换成@)
3、如果您发现某页面或地址有错误,请联系站长邮箱BT9527#hotmail.com(#换成@),我们会尽快处理。您的热心是对BT9527电影天堂最大的支持。
4、本站建议去正规影院观看电影以支持电影行业发展。
最新回复 (0)

你可以在 登录 or 注册 后,对此帖发表评论!

返回
发新帖