木星上行[国英多音轨/中英字幕].Jupiter.Ascending.2015.BluRay.1080p.x265.10bit.2Audio-MiniHD 4.84GB

版主小s 27天前 194

◎译 名 木星上行 / 木升战纪(港) / 朱比特崛起(台) / 朱庇特上升

◎片 名 Jupiter Ascending

◎年 代 2015

◎产 地 美国 / 澳大利亚

◎类 别 动作 / 科幻 / 冒险

◎语 言 英语 / 俄语

◎上映日期 2015-03-06(中国大陆) / 2015-01-27(圣丹斯电影节) / 2015-02-06(美国)

◎IMDb链接 https://www.imdb.com/title/tt1617661/

◎豆瓣评分 5.5/10 (81162人评价)

◎豆瓣链接 https://movie.douban.com/subject/5154799/

◎片 长 126分钟(中国大陆)

◎导 演 莉莉·沃卓斯基 Lilly Wachowski (id:1013899)

拉娜·沃卓斯基 Lana Wachowski (id:1161012)

◎编 剧 莉莉·沃卓斯基 Lilly Wachowski (id:1013899)

拉娜·沃卓斯基 Lana Wachowski (id:1161012)

◎演 员 查宁·塔图姆 Channing Tatum (id:1031224)

米拉·库尼斯 Mila Kunis (id:1003481)

肖恩·宾 Sean Bean (id:1002683)

埃迪·雷德梅恩 Eddie Redmayne (id:1010503)

道格拉斯·布斯 Douglas Booth (id:1314461)

裴斗娜 Doona Bae (id:1057004)

詹姆斯·达西 James D'Arcy (id:1049713)

特瑞·吉列姆 Terry Gilliam (id:1047980)

塔彭丝·米德尔顿 Tuppence Middleton (id:1265872)

凡妮莎·柯比 Vanessa Kirby (id:1317680)

蒂姆·皮戈特-史密斯 Tim Pigott-Smith (id:1133433)

爱德华·霍格 Edward Hogg (id:1305558)

奇克·盖瑞 Kick Gurry (id:1018306)

古古·姆巴塔-劳 Gugu Mbatha-Raw (id:1316167)

玛丽亚·多耶·肯尼迪 Maria Doyle Kennedy (id:1027195)

克里斯蒂娜·科尔 Christina Cole (id:1220340)

乔·奥斯蒙德 Jo Osmond (id:1234671)

杰里米·斯威夫特 Jeremy Swift (id:1338036)

大卫·阿贾拉 David Ajala (id:1332074)

妮基·阿姆卡-伯德 Nikki Amuka-Bird (id:1332073)

尼尔·芬格尔顿 Neil Fingleton (id:1242769)

Nicholas A. Newman Nicholas A. Newman (id:1347911)

阿利安·巴克瑞 Ariyon Bakare (id:1347910)

Frog Stone Frog Stone (id:1347909)

莎拉·克劳登 Sarah Crowden (id:1433016)

夏洛特·布鲁蒙特 Charlotte Beaumont (id:1346483)

塞缪尔·巴奈特 Samuel Barnett (id:1045095)

Charlotte Rickard Charlotte Rickard (id:1349080)

杰夫·奎卡 Jeff Kryka (id:1382066)

艾尔莎·莫利安 Elsa Mollien (id:1392848)

西蒙·道顿 Simon Dutton (id:1413671)

Emily Renée Emily Renée (id:1454630)

凯瑟琳·坎宁安 Katherine Cunningham (id:1339477)

安库塔·布雷班 Ancuta Breaban (id:1337214)

莉莉·沃卓斯基 Lilly Wachowski (id:1013899)

拉娜·沃卓斯基 Lana Wachowski (id:1161012)

迈克·吉亚奇诺 Michael Giacchino (id:1027937)

Robert C. Rhodes Robert C. Rhodes (id:1377948)

卡洛斯·华达德 Carlos Ciudad (id:1414095)

特里·马里奥特 Terry Marriott (id:1404975)

◎简 介

故事发生在遥远的未来,相貌平平的女孩朱庇特·琼斯(米拉·库尼斯 Mila Kunis 饰)自幼丧父,如今她以厕所清洁工的身份在茫茫人海中奋力求生。谁知毫无征兆的一天,朱庇特的命运彻底改变,来自外太空的“半兽人”赏金猎人凯恩(查宁·塔图姆 Channing Tatum 饰)将其劫持,而这一切都与朱庇特与生俱来的神秘基因有关。话说在浩瀚宇宙的最深处,存在着一个屹立数千亿年的埃布拉赛克斯王朝,在前代女王去世后,顺位第一继承人的巴勒姆(埃迪·雷德梅尼 Eddie Redmayne 饰)践祚,野心勃勃地开始了他的邪恶计划。但是朱庇特拥有和前代女王最为接近的血缘,从而对巴勒姆的王位构成了威胁。

原本肩负杀掉女孩重任的凯恩,在和朱庇特奔走在炮火砍杀的过程中,内心渐渐发生了变化……

◎获奖情况 (共13项)

第36届金酸莓奖 (2016)

最差影片(提名)

最差男主角(提名)

└──查宁·塔图姆 (id:1031224)

最差女主角(提名)

└──米拉·库尼斯 (id:1003481)

最差男配角

└──埃迪·雷德梅恩 (id:1010503)

最差导演(提名)

最差剧本(提名)

第17届美国青少年选择奖 (2015)

最佳科幻/奇幻电影男演员(提名)

└──查宁·塔图姆 (id:1031224)

最佳科幻/奇幻电影女演员(提名)

└──米拉·库尼斯 (id:1003481)

第2届豆瓣电影年度榜单 (2015)

评分最低的外语电影(提名)

第6届豆瓣电影鑫像奖 (2016)

豆渣单元 最渣影片(外语)(提名)

豆渣单元 最渣导演(外语)(提名)

└──莉莉·沃卓斯基 (id:1013899)

豆渣单元 最渣男演员(外语)(提名)

豆渣单元 最渣女演员(外语)(提名)

└──米拉·库尼斯 (id:1003481)

  1. ##### MediaInfo ######

  2. General

  3. Unique ID : 199292479537898671716592140104843964536 (0x95EE55DCFDFAC1CD8D3AABDB998CB078)

  4. Complete name : Jupiter.Ascending.2015.BluRay.1080p.x265.10bit.2Audio-MiniHD.mkv

  5. Format : Matroska

  6. Format version : Version 4

  7. File size : 4.83 GiB

  8. Duration : 2 h 7 min

  9. Overall bit rate : 5 425 kb/s

  10. Encoded date : UTC 2017-07-11 08:42:28

  11. Writing application : mkvmerge v11.0.0 ('Alive') 64bit

  12. Writing library : libebml v1.3.4 + libmatroska v1.4.5

  13. Video

  14. ID : 1

  15. Format : HEVC

  16. Format/Info : High Efficiency Video Coding

  17. Codec ID : V_MPEGH/ISO/HEVC

  18. Duration : 2 h 7 min

  19. Bit rate : 4 037 kb/s

  20. Width : 1 920 pixels

  21. Height : 800 pixels

  22. Display aspect ratio : 2.40:1

  23. Frame rate mode : Constant

  24. Frame rate : 23.976 (24000/1001/53354) FPS

  25. Bits/(Pixel*Frame) : 0.110

  26. Stream size : 3.60 GiB (74%)

  27. Default : Yes

  28. Forced : No

  29. Audio #1

  30. ID : 2

  31. Format : AC-3

  32. Format/Info : Audio Coding 3

  33. Commercial name : Dolby Digital

  34. Codec ID : A_AC3

  35. Duration : 2 h 7 min

  36. Bit rate mode : Constant

  37. Bit rate : 640 kb/s

  38. Channel(s) : 6 channels

  39. Channel layout : L R C LFE Ls Rs

  40. Sampling rate : 48.0 kHz

  41. Frame rate : 31.250 FPS (1536 SPF)

  42. Compression mode : Lossy

  43. Stream size : 584 MiB (12%)

  44. Language : English

  45. Service kind : Complete Main

  46. Default : Yes

  47. Forced : No

  48. Audio #2

  49. ID : 3

  50. Format : AC-3

  51. Format/Info : Audio Coding 3

  52. Commercial name : Dolby Digital

  53. Codec ID : A_AC3

  54. Duration : 2 h 7 min

  55. Bit rate mode : Constant

  56. Bit rate : 640 kb/s

  57. Channel(s) : 6 channels

  58. Channel layout : L R C LFE Ls Rs

  59. Sampling rate : 48.0 kHz

  60. Frame rate : 31.250 FPS (1536 SPF)

  61. Compression mode : Lossy

  62. Stream size : 584 MiB (12%)

  63. Language : Chinese

  64. Service kind : Complete Main

  65. Default : No

  66. Forced : No

  67. Text #1

  68. ID : 4

  69. Format : PGS

  70. Muxing mode : zlib

  71. Codec ID : S_HDMV/PGS

  72. Codec ID/Info : Picture based subtitle format used on BDs/HD-DVDs

  73. Language : English

  74. Default : Yes

  75. Forced : No

  76. Text #2

  77. ID : 5

  78. Format : PGS

  79. Muxing mode : zlib

  80. Codec ID : S_HDMV/PGS

  81. Codec ID/Info : Picture based subtitle format used on BDs/HD-DVDs

  82. Language : Chinese

  83. Default : No

  84. Forced : No

  85. Text #3

  86. ID : 6

  87. Format : PGS

  88. Muxing mode : zlib

  89. Codec ID : S_HDMV/PGS

  90. Codec ID/Info : Picture based subtitle format used on BDs/HD-DVDs

  91. Language : Chinese

  92. Default : No

  93. Forced : No

  94. Text #4

  95. ID : 7

  96. Format : PGS

  97. Muxing mode : zlib

  98. Codec ID : S_HDMV/PGS

  99. Codec ID/Info : Picture based subtitle format used on BDs/HD-DVDs

  100. Language : Chinese

  101. Default : No

  102. Forced : No

  103. Text #5

  104. ID : 8

  105. Format : PGS

  106. Muxing mode : zlib

  107. Codec ID : S_HDMV/PGS

  108. Codec ID/Info : Picture based subtitle format used on BDs/HD-DVDs

  109. Language : Chinese

  110. Default : No

  111. Forced : No

  112. Text #6

  113. ID : 9

  114. Format : PGS

  115. Muxing mode : zlib

  116. Codec ID : S_HDMV/PGS

  117. Codec ID/Info : Picture based subtitle format used on BDs/HD-DVDs

  118. Language : Chinese

  119. Default : No

  120. Forced : No

  121. Text #7

  122. ID : 10

  123. Format : PGS

  124. Muxing mode : zlib

  125. Codec ID : S_HDMV/PGS

  126. Codec ID/Info : Picture based subtitle format used on BDs/HD-DVDs

  127. Language : Chinese

  128. Default : No

  129. Forced : No

  130. Text #8

  131. ID : 11

  132. Format : PGS

  133. Muxing mode : zlib

  134. Codec ID : S_HDMV/PGS

  135. Codec ID/Info : Picture based subtitle format used on BDs/HD-DVDs

  136. Language : Chinese

  137. Default : No

  138. Forced : No

  139. Menu

  140. 00:00:00.000 : en:Chapter 01

  141. 00:08:45.024 : en:Chapter 02

  142. 00:19:31.170 : en:Chapter 03

  143. 00:31:32.974 : en:Chapter 04

  144. 00:41:42.541 : en:Chapter 05

  145. 00:49:35.639 : en:Chapter 06

  146. 00:58:29.631 : en:Chapter 07

  147. 01:09:20.030 : en:Chapter 08

  148. 01:19:07.200 : en:Chapter 09

  149. 01:29:09.427 : en:Chapter 10

  150. 01:36:08.512 : en:Chapter 11

  151. 01:43:26.575 : en:Chapter 12

  152. 01:52:58.772 : en:Chapter 13

  153. 01:57:59.489 : en:Chapter 14


复制代码


TAGS 动作 冒险 科幻 /

磁力链:
  • magnet:?xt=urn:btih:82EEF2D2FDFA32AB31C963C1D2491B2BC56906A1
上传的附件:
BT9527电影天堂 1、BT9527电影天堂提供的BT文件均来源于互联网抓取,只供网友学习交流、技术提升使用。
2、我们遵守BitTorrent点对点协议原则,任何版权问题请联系原资源发布商,我们不处理任何版权纠纷,谢谢!如有争议请联系邮箱:BT9527#hotmail.com(#换成@)
3、如果您发现某页面或地址有错误,请联系站长邮箱BT9527#hotmail.com(#换成@),我们会尽快处理。您的热心是对BT9527电影天堂最大的支持。
4、本站建议去正规影院观看电影以支持电影行业发展。
最新回复 (0)

你可以在 登录 or 注册 后,对此帖发表评论!

返回
发新帖