最后的莫希干人[国英多音轨/中英字幕].The.Last.of.the.Mohicans.1992.BluRay.1080p.x265.10bit.2Audio-MiniHD 5.68GB

版主小s 27天前 194

◎译 名 最后的莫希干人 / 最后的摩根战士(港) / 大地英豪(台) / 最后一个莫西干人 / 最后的莫西干人

◎片 名 The Last of the Mohicans

◎年 代 1992

◎产 地 美国

◎类 别 爱情 / 战争 / 冒险

◎语 言 英语 / 法语 / 摩霍克语

◎上映日期 1992-09-25

◎IMDb链接 https://www.imdb.com/title/tt0104691/

◎豆瓣评分 7.6/10 (12468人评价)

◎豆瓣链接 https://movie.douban.com/subject/1296973/

◎片 长 112分钟

◎导 演 迈克尔·曼 Michael Mann (id:1007003)

◎编 剧 詹姆斯·费尼莫尔·库柏 James Fenimore Cooper (id:1050713)

约翰·L·鲍尔德斯顿 John L. Balderston (id:1028885)

Paul Perez Paul Perez (id:1012957)

Daniel Moore Daniel Moore (id:1455862)

菲利普·邓恩 Philip Dunne (id:1005881)

迈克尔·曼 Michael Mann (id:1007003)

克里斯托弗·克劳 Christopher Crowe (id:1023182)

◎演 员 丹尼尔·戴-刘易斯 Daniel Day-Lewis (id:1056177)

玛德琳·斯托 Madeleine Stowe (id:1022636)

拉塞尔·敏斯 Russell Means (id:1040699)

埃里克·施维克 Eric Schweig (id:1018062)

乔迪·梅 Jodhi May (id:1044968)

史蒂芬·威丁顿 Steven Waddington (id:1319284)

韦斯·斯塔迪 Wes Studi (id:1036366)

莫里斯·洛维斯 Maurice Ro?ves (id:1139838)

帕特里斯·夏侯 Patrice Chéreau (id:1041315)

特里·金尼 Terry Kinney (id:1004726)

Dennis Banks Dennis Banks (id:1004864)

皮特·波斯尔思韦特 Pete Postlethwaite (id:1007023)

科尔姆·米尼 Colm Meaney (id:1019029)

马尔科姆·斯托里 Malcolm Storry (id:1149087)

大卫·斯科菲尔德 David Schofield (id:1386016)

迪伦·贝克 Dylan Baker (id:1027874)

格雷戈里·萨拉戈萨 Gregory Zaragoza (id:1166377)

Scott Means Scott Means (id:1116232)

Mark Joy Mark Joy (id:1025457)

杰瑞德·哈里斯 Jared Harris (id:1049700)

汤姆·麦高恩 Tom McGowan (id:1022854)

塞巴斯蒂安·罗奇 Sebastian Roché (id:1055271)

Joe Finnegan Joe Finnegan (id:1283745)

约翰·哈林顿·布兰德 John Harrington Bland (id:1062496)

肖恩·迈克尔·派瑞 Shawn Michael Perry (id:1046045)

内德·道德 Ned Dowd (id:1018502)

James G. Robinson James G. Robinson (id:1295819)

迈克尔·曼 Michael Mann (id:1007003)

乔尔·麦克尼利 Joel McNeely (id:1276598)

崔佛·琼斯 Trevor Jones (id:1055597)

兰迪·艾德尔曼 Randy Edelman (id:1019213)

但丁·斯宾诺蒂 Dante Spinotti (id:1023108)

多夫·霍尼希 Dov Hoenig (id:1286751)

阿瑟·施密特 Arthur Schmidt (id:1296896)

邦妮·蒂默曼 Bonnie Timmermann (id:1299285)

沃尔夫·克罗伊格 Wolf Kroeger (id:1289046)

罗伯特·格拉 Robert Guerra (id:1285610)

吉姆·埃里克森 Jim Erickson (id:1303143)

艾尔莎·赞帕雷利 Elsa Zamparelli (id:1039234)

Jeff Goodwin Jeff Goodwin (id:1099950)

Vincent J. Guastini Vincent J. Guastini (id:1101053)

Christopher Johnson Christopher Johnson (id:1105844)

Angela Hajianis (id:1221914)

尼克·杜德曼 Nick Dudman (id:1282763)

温迪·贝尔 Wendy Bell (id:1278278)

Jane Royle Jane Royle (id:1296256)

彼得·罗勃-金 Peter Robb-King (id:1295741)

吉姆·瑞吉尔 Jim Rygiel (id:1296402)

米歇尔·莫恩 Michele Moen (id:1292270)

◎简 介

本片改编自美国作家库柏“皮袜子”系列小说中的第二部。

1757年七年战争期间,英法两军在北美殖民地激战正酣。军官邓肯带队护送长官之女可娜(Madeleine Stowe 饰)前往威廉亨利堡,半路遭法属印第安人埋伏,莫希干族最后的战士——金卡加(Russell Means 饰)、安卡斯父子与白人霍克依(Daniel Day-Lewis 饰)出手相救。但抵达要塞时他们发现这里已陷入战火,要塞长官门罗与邓肯做事强硬,不肯放走民兵自降战力,并将霍克依监禁,可娜这时已同霍克依相恋,但却无力援救。英军战事不利弃堡投降,印第安人马瓜带领族人向英军寻仇,可娜与霍克依失散后被马瓜带走,霍克依、金卡加、安卡斯一行进入马瓜族人的营地,以期带回可娜。

◎获奖情况 (共9项)

第65届奥斯卡金像奖 (1993)

最佳音响

第50届金球奖 (1993)

电影类 最佳原创配乐(提名)

第46届英国电影学院奖 (1993)

电影奖 最佳男主角(提名)

└──丹尼尔·戴-刘易斯 (id:1056177)

电影奖 最佳摄影

└──但丁·斯宾诺蒂 (id:1023108)

电影奖 最佳化妆/发型

└──彼得·罗勃-金 (id:1295741)

电影奖 最佳服装设计(提名)

└──艾尔莎·赞帕雷利 (id:1039234)

电影奖 最佳艺术指导(提名)

└──沃尔夫·克罗伊格 (id:1289046)

电影奖 最佳原创音乐(提名)

电影奖 最佳音效(提名)

  1. ##### MediaInfo ######

  2. General

  3. Unique ID : 224101004839289613152406667607198329569 (0xA89848989D8899FB980FCBFC4E36EAE1)

  4. Complete name : The.Last.of.the.Mohicans.1992.BluRay.1080p.x265.10bit.2Audio-MiniHD.mkv

  5. Format : Matroska

  6. Format version : Version 4

  7. File size : 5.67 GiB

  8. Duration : 1 h 54 min

  9. Overall bit rate : 7 092 kb/s

  10. Encoded date : UTC 2017-10-12 06:01:06

  11. Writing application : mkvmerge v11.0.0 ('Alive') 64bit

  12. Writing library : libebml v1.3.4 + libmatroska v1.4.5

  13. Video

  14. ID : 1

  15. Format : HEVC

  16. Format/Info : High Efficiency Video Coding

  17. Codec ID : V_MPEGH/ISO/HEVC

  18. Duration : 1 h 54 min

  19. Bit rate : 5 863 kb/s

  20. Width : 1 920 pixels

  21. Height : 800 pixels

  22. Display aspect ratio : 2.40:1

  23. Frame rate mode : Constant

  24. Frame rate : 23.976 (24000/1001/53354) FPS

  25. Bits/(Pixel*Frame) : 0.159

  26. Stream size : 4.69 GiB (83%)

  27. Default : Yes

  28. Forced : No

  29. Audio #1

  30. ID : 2

  31. Format : AC-3

  32. Format/Info : Audio Coding 3

  33. Commercial name : Dolby Digital

  34. Codec ID : A_AC3

  35. Duration : 1 h 54 min

  36. Bit rate mode : Constant

  37. Bit rate : 640 kb/s

  38. Channel(s) : 6 channels

  39. Channel layout : L R C LFE Ls Rs

  40. Sampling rate : 48.0 kHz

  41. Frame rate : 31.250 FPS (1536 SPF)

  42. Compression mode : Lossy

  43. Stream size : 524 MiB (9%)

  44. Language : English

  45. Service kind : Complete Main

  46. Default : Yes

  47. Forced : No

  48. Audio #2

  49. ID : 3

  50. Format : AC-3

  51. Format/Info : Audio Coding 3

  52. Commercial name : Dolby Digital

  53. Codec ID : A_AC3

  54. Duration : 1 h 54 min

  55. Bit rate mode : Constant

  56. Bit rate : 448 kb/s

  57. Channel(s) : 6 channels

  58. Channel layout : L R C LFE Ls Rs

  59. Sampling rate : 48.0 kHz

  60. Frame rate : 31.250 FPS (1536 SPF)

  61. Compression mode : Lossy

  62. Stream size : 367 MiB (6%)

  63. Language : Chinese

  64. Service kind : Complete Main

  65. Default : No

  66. Forced : No

  67. Text #1

  68. ID : 4

  69. Format : PGS

  70. Muxing mode : zlib

  71. Codec ID : S_HDMV/PGS

  72. Codec ID/Info : Picture based subtitle format used on BDs/HD-DVDs

  73. Language : English

  74. Default : Yes

  75. Forced : No

  76. Text #2

  77. ID : 5

  78. Format : PGS

  79. Muxing mode : zlib

  80. Codec ID : S_HDMV/PGS

  81. Codec ID/Info : Picture based subtitle format used on BDs/HD-DVDs

  82. Language : Chinese

  83. Default : No

  84. Forced : No

  85. Text #3

  86. ID : 6

  87. Format : PGS

  88. Muxing mode : zlib

  89. Codec ID : S_HDMV/PGS

  90. Codec ID/Info : Picture based subtitle format used on BDs/HD-DVDs

  91. Language : Chinese

  92. Default : No

  93. Forced : No

  94. Text #4

  95. ID : 7

  96. Format : PGS

  97. Muxing mode : zlib

  98. Codec ID : S_HDMV/PGS

  99. Codec ID/Info : Picture based subtitle format used on BDs/HD-DVDs

  100. Language : Chinese

  101. Default : No

  102. Forced : No

  103. Menu

  104. 00:00:00.000 : en:Chapter 01

  105. 00:01:55.365 : en:Chapter 02

  106. 00:04:29.060 : en:Chapter 03

  107. 00:06:48.241 : en:Chapter 04

  108. 00:08:43.272 : en:Chapter 05

  109. 00:12:32.960 : en:Chapter 06

  110. 00:14:55.102 : en:Chapter 07

  111. 00:22:15.667 : en:Chapter 08

  112. 00:24:32.929 : en:Chapter 09

  113. 00:28:11.940 : en:Chapter 10

  114. 00:33:58.411 : en:Chapter 11

  115. 00:43:30.316 : en:Chapter 12

  116. 00:45:41.738 : en:Chapter 13

  117. 00:47:19.378 : en:Chapter 14

  118. 00:48:52.888 : en:Chapter 15

  119. 00:52:03.578 : en:Chapter 16

  120. 00:54:33.353 : en:Chapter 17

  121. 00:57:42.667 : en:Chapter 18

  122. 01:00:09.522 : en:Chapter 19

  123. 01:03:15.291 : en:Chapter 20

  124. 01:07:43.726 : en:Chapter 21

  125. 01:10:35.022 : en:Chapter 22

  126. 01:12:41.065 : en:Chapter 23

  127. 01:18:58.775 : en:Chapter 24

  128. 01:22:16.890 : en:Chapter 25

  129. 01:24:50.543 : en:Chapter 26

  130. 01:31:29.609 : en:Chapter 27

  131. 01:34:46.806 : en:Chapter 28

  132. 01:39:30.130 : en:Chapter 29

  133. 01:44:30.931 : en:Chapter 30

  134. 01:46:38.517 : en:Chapter 31

  135. 01:49:18.385 : en:Chapter 32


复制代码


TAGS 冒险 爱情 战争 /

磁力链:
  • magnet:?xt=urn:btih:EFCCAB46DC6C070AC6E30E89650C784DCBB2BBFF
上传的附件:
BT9527电影天堂 1、BT9527电影天堂提供的BT文件均来源于互联网抓取,只供网友学习交流、技术提升使用。
2、我们遵守BitTorrent点对点协议原则,任何版权问题请联系原资源发布商,我们不处理任何版权纠纷,谢谢!如有争议请联系邮箱:BT9527#hotmail.com(#换成@)
3、如果您发现某页面或地址有错误,请联系站长邮箱BT9527#hotmail.com(#换成@),我们会尽快处理。您的热心是对BT9527电影天堂最大的支持。
4、本站建议去正规影院观看电影以支持电影行业发展。
最新回复 (0)

你可以在 登录 or 注册 后,对此帖发表评论!

返回
发新帖