日落黄沙[国英多音轨/中英字幕].The.Wild.Bunch.1969.BluRay.1080p.x265.10bit.2Audio-MiniHD 8.30GB

版主小s 22天前 126

◎译 名 日落黄沙 / 流寇志(港) / 不法集团 / 野战群 / 一群狂人

◎片 名 The Wild Bunch

◎年 代 1969

◎产 地 美国

◎类 别 动作 / 西部

◎语 言 英语 / 德语 / 西班牙语

◎上映日期 1969-06-18

◎IMDb链接 https://www.imdb.com/title/tt0065214/

◎豆瓣评分 8.3/10 (9619人评价)

◎豆瓣链接 https://movie.douban.com/subject/1296963/

◎片 长 144分钟

◎导 演 萨姆·佩金帕 Sam Peckinpah (id:1032063)

◎编 剧 沃伦·格林 Walon Green (id:1037302)

萨姆·佩金帕 Sam Peckinpah (id:1032063)

◎演 员 威廉·霍尔登 William Holden (id:1002737)

欧内斯特·博格宁 Ernest Borgnine (id:1007005)

罗伯特·瑞安 Robert Ryan (id:1146105)

艾德蒙·奥布莱恩 Edmond O'Brien (id:1049767)

沃伦·奥茨 Warren Oates (id:1010664)

比尔·哈特 Bill Hart (id:1347819)

黄齐耀 Tyrus Wong (id:1445378)

◎简 介

派克(威廉·霍尔登 William Holden 饰)是个失败的强盗,他和他的同伙们不仅在抢劫银行上栽了跟头,自己还遭到了赏金猎手桑顿(罗伯特·瑞安 Robert Ryan 饰)的追杀,好在有印第安青年安琪(杰米·桑切兹 Jaime Sánchez 饰)出手相助,才得以脱险。

跟随着安琪,派克一行人来到了墨西哥边界,在那里,驻扎着个性凶残暴躁的军阀玛帕奇(费南德斯·埃米里奥 Emilio Fernández 饰)及其同党,而玛帕奇和安琪之间,有着一段充满了仇恨和鲜血的不堪往事。为了能够通过玛帕奇的地盘,交出安琪成为了唯一也是无奈的选择。派克打算带领弟兄们救回安琪,不幸的是为时已晚,安琪已经被杀害。在悲愤交加的派克和玛帕奇之间,一场恶战即将拉开帷幕。

◎获奖情况 (共2项)

第42届奥斯卡金像奖 (1970)

最佳原创剧本(提名)

非歌舞片最佳原创配乐(提名)

└──杰里·菲尔丁 (id:1019366)

  1. ##### MediaInfo ######

  2. General

  3. Unique ID : 227730096916603332373397923656730454863 (0xAB5338A6652C4DAD94E9B1091658AB4F)

  4. Complete name : The.Wild.Bunch.1969.BluRay.1080p.x265.10bit.2Audio-MiniHD.mkv

  5. Format : Matroska

  6. Format version : Version 4

  7. File size : 8.30 GiB

  8. Duration : 2 h 24 min

  9. Overall bit rate : 8 203 kb/s

  10. Encoded date : UTC 2017-07-25 01:47:18

  11. Writing application : mkvmerge v11.0.0 ('Alive') 64bit

  12. Writing library : libebml v1.3.4 + libmatroska v1.4.5

  13. Video

  14. ID : 1

  15. Format : HEVC

  16. Format/Info : High Efficiency Video Coding

  17. Codec ID : V_MPEGH/ISO/HEVC

  18. Duration : 2 h 24 min

  19. Bit rate : 7 296 kb/s

  20. Width : 1 920 pixels

  21. Height : 794 pixels

  22. Display aspect ratio : 2.40:1

  23. Frame rate mode : Constant

  24. Frame rate : 23.976 (24000/1001/53354) FPS

  25. Bits/(Pixel*Frame) : 0.200

  26. Stream size : 7.38 GiB (89%)

  27. Default : Yes

  28. Forced : No

  29. Audio #1

  30. ID : 2

  31. Format : AC-3

  32. Format/Info : Audio Coding 3

  33. Commercial name : Dolby Digital

  34. Codec ID : A_AC3

  35. Duration : 2 h 24 min

  36. Bit rate mode : Constant

  37. Bit rate : 640 kb/s

  38. Channel(s) : 6 channels

  39. Channel layout : L R C LFE Ls Rs

  40. Sampling rate : 48.0 kHz

  41. Frame rate : 31.250 FPS (1536 SPF)

  42. Compression mode : Lossy

  43. Stream size : 663 MiB (8%)

  44. Language : English

  45. Service kind : Complete Main

  46. Default : Yes

  47. Forced : No

  48. Audio #2

  49. ID : 3

  50. Format : AC-3

  51. Format/Info : Audio Coding 3

  52. Commercial name : Dolby Digital

  53. Codec ID : A_AC3

  54. Duration : 2 h 24 min

  55. Bit rate mode : Constant

  56. Bit rate : 192 kb/s

  57. Channel(s) : 2 channels

  58. Channel layout : L R

  59. Sampling rate : 48.0 kHz

  60. Frame rate : 31.250 FPS (1536 SPF)

  61. Compression mode : Lossy

  62. Delay relative to video : 3 s 200 ms

  63. Stream size : 199 MiB (2%)

  64. Language : Chinese

  65. Service kind : Complete Main

  66. Default : No

  67. Forced : No

  68. Text #1

  69. ID : 4

  70. Format : PGS

  71. Muxing mode : zlib

  72. Codec ID : S_HDMV/PGS

  73. Codec ID/Info : Picture based subtitle format used on BDs/HD-DVDs

  74. Duration : 2 h 20 min

  75. Bit rate : 9 217 b/s

  76. Count of elements : 1758

  77. Stream size : 9.27 MiB (0%)

  78. Language : English

  79. Default : Yes

  80. Forced : No

  81. Text #2

  82. ID : 5

  83. Format : PGS

  84. Muxing mode : zlib

  85. Codec ID : S_HDMV/PGS

  86. Codec ID/Info : Picture based subtitle format used on BDs/HD-DVDs

  87. Duration : 2 h 22 min

  88. Bit rate : 11.5 kb/s

  89. Count of elements : 2320

  90. Stream size : 11.8 MiB (0%)

  91. Language : English

  92. Default : No

  93. Forced : No

  94. Text #3

  95. ID : 6

  96. Format : PGS

  97. Muxing mode : zlib

  98. Codec ID : S_HDMV/PGS

  99. Codec ID/Info : Picture based subtitle format used on BDs/HD-DVDs

  100. Duration : 2 h 22 min

  101. Bit rate : 8 757 b/s

  102. Count of elements : 2012

  103. Stream size : 8.90 MiB (0%)

  104. Language : Chinese

  105. Default : No

  106. Forced : No

  107. Text #4

  108. ID : 7

  109. Format : PGS

  110. Muxing mode : zlib

  111. Codec ID : S_HDMV/PGS

  112. Codec ID/Info : Picture based subtitle format used on BDs/HD-DVDs

  113. Duration : 2 h 22 min

  114. Bit rate : 9 190 b/s

  115. Count of elements : 2012

  116. Stream size : 9.34 MiB (0%)

  117. Language : Chinese

  118. Default : No

  119. Forced : No

  120. Text #5

  121. ID : 8

  122. Format : PGS

  123. Muxing mode : zlib

  124. Codec ID : S_HDMV/PGS

  125. Codec ID/Info : Picture based subtitle format used on BDs/HD-DVDs

  126. Duration : 2 h 21 min

  127. Bit rate : 8 868 b/s

  128. Count of elements : 2046

  129. Stream size : 8.98 MiB (0%)

  130. Language : Chinese

  131. Default : No

  132. Forced : No

  133. Text #6

  134. ID : 9

  135. Format : PGS

  136. Muxing mode : zlib

  137. Codec ID : S_HDMV/PGS

  138. Codec ID/Info : Picture based subtitle format used on BDs/HD-DVDs

  139. Duration : 2 h 21 min

  140. Bit rate : 9 161 b/s

  141. Count of elements : 2046

  142. Stream size : 9.27 MiB (0%)

  143. Language : Chinese

  144. Default : No

  145. Forced : No

  146. Text #7

  147. ID : 10

  148. Format : PGS

  149. Muxing mode : zlib

  150. Codec ID : S_HDMV/PGS

  151. Codec ID/Info : Picture based subtitle format used on BDs/HD-DVDs

  152. Duration : 2 h 21 min

  153. Bit rate : 8 867 b/s

  154. Count of elements : 2046

  155. Stream size : 8.97 MiB (0%)

  156. Language : Chinese

  157. Default : No

  158. Forced : No

  159. Text #8

  160. ID : 11

  161. Format : PGS

  162. Muxing mode : zlib

  163. Codec ID : S_HDMV/PGS

  164. Codec ID/Info : Picture based subtitle format used on BDs/HD-DVDs

  165. Duration : 2 h 21 min

  166. Bit rate : 9 160 b/s

  167. Count of elements : 2046

  168. Stream size : 9.27 MiB (0%)

  169. Language : Chinese

  170. Default : No

  171. Forced : No

  172. Menu

  173. 00:00:00.000 : en:Chapter 01

  174. 00:06:32.767 : en:Chapter 02

  175. 00:10:08.566 : en:Chapter 03

  176. 00:14:28.325 : en:Chapter 04

  177. 00:15:25.132 : en:Chapter 05

  178. 00:18:15.260 : en:Chapter 06

  179. 00:20:13.837 : en:Chapter 07

  180. 00:22:41.234 : en:Chapter 08

  181. 00:23:34.579 : en:Chapter 09

  182. 00:31:02.610 : en:Chapter 10

  183. 00:34:16.012 : en:Chapter 11

  184. 00:36:34.442 : en:Chapter 12

  185. 00:41:44.335 : en:Chapter 13

  186. 00:42:52.152 : en:Chapter 14

  187. 00:48:12.097 : en:Chapter 15

  188. 00:50:17.848 : en:Chapter 16

  189. 00:52:52.294 : en:Chapter 17

  190. 00:59:42.579 : en:Chapter 18

  191. 01:03:45.488 : en:Chapter 19

  192. 01:09:22.575 : en:Chapter 20

  193. 01:11:56.645 : en:Chapter 21

  194. 01:17:12.169 : en:Chapter 22

  195. 01:21:45.775 : en:Chapter 23

  196. 01:24:24.267 : en:Chapter 24

  197. 01:27:23.029 : en:Chapter 25

  198. 01:28:27.760 : en:Chapter 26

  199. 01:32:02.600 : en:Chapter 27

  200. 01:35:19.922 : en:Chapter 28

  201. 01:36:50.095 : en:Chapter 29

  202. 01:41:18.572 : en:Chapter 30

  203. 01:46:22.000 : en:Chapter 31

  204. 01:49:07.374 : en:Chapter 32

  205. 01:49:56.506 : en:Chapter 33

  206. 01:52:20.650 : en:Chapter 34

  207. 01:55:32.967 : en:Chapter 35

  208. 02:00:10.995 : en:Chapter 36

  209. 02:04:09.108 : en:Chapter 37

  210. 02:08:16.271 : en:Chapter 38

  211. 02:10:41.750 : en:Chapter 39

  212. 02:12:24.394 : en:Chapter 40

  213. 02:13:35.590 : en:Chapter 41

  214. 02:14:53.877 : en:Chapter 42

  215. 02:17:04.049 : en:Chapter 43

  216. 02:19:13.511 : en:Chapter 44

  217. 02:21:17.635 : en:Chapter 45

  218. 02:22:35.088 : en:Chapter 46


复制代码


TAGS 动作 西部 /

磁力链:
  • magnet:?xt=urn:btih:2D4761BE238D99F551E072EDA334C07938AD4C08
上传的附件:
BT9527电影天堂 1、BT9527电影天堂提供的BT文件均来源于互联网抓取,只供网友学习交流、技术提升使用。
2、我们遵守BitTorrent点对点协议原则,任何版权问题请联系原资源发布商,我们不处理任何版权纠纷,谢谢!如有争议请联系邮箱:BT9527#hotmail.com(#换成@)
3、如果您发现某页面或地址有错误,请联系站长邮箱BT9527#hotmail.com(#换成@),我们会尽快处理。您的热心是对BT9527电影天堂最大的支持。
4、本站建议去正规影院观看电影以支持电影行业发展。
最新回复 (0)

你可以在 登录 or 注册 后,对此帖发表评论!

返回
发新帖