日瓦戈医生[国英多音轨/中英字幕].Doctor.Zhivago.1965.BluRay.1080p.x265.10bit.4Audio-MiniHD 9.48GB

版主小s 1月前 112

◎译 名 日瓦戈医生 / 济瓦格医生(港) / 齐瓦哥医生(台) / 齐瓦格医生 / 日瓦格医生

◎片 名 Doctor Zhivago

◎年 代 1965

◎产 地 美国 / 意大利 / 英国

◎类 别 剧情 / 爱情 / 战争

◎语 言 英语 / 俄语 / 法语

◎上映日期 1965-12-31(美国)

◎IMDb链接 https://www.imdb.com/title/tt0059113/

◎豆瓣评分 8.5/10 (18134人评价)

◎豆瓣链接 https://movie.douban.com/subject/1389949/

◎片 长 197分钟

◎导 演 大卫·里恩 David Lean (id:1002783)

◎编 剧 罗伯特·鲍特 Robert Bolt (id:1023062)

鲍里斯·帕斯捷尔纳克 Boris Pasternak (id:1005323)

◎演 员 奥马尔·沙里夫 Omar Sharif (id:1002711)

朱莉·克里斯蒂 Julie Christie (id:1000086)

杰拉丁·卓别林 Geraldine Chaplin (id:1025238)

罗德·斯泰格尔 Rod Steiger (id:1002747)

亚历克·吉尼斯 Alec Guinness (id:1000109)

汤姆·康特奈 Tom Courtenay (id:1032222)

西沃恩·麦克纳 Siobhan McKenna (id:1115900)

拉尔夫·理查德森 Ralph Richardson (id:1036710)

丽塔·塔欣厄姆 Rita Tushingham (id:1032395)

杰弗里·罗克兰 Jeffrey Rockland (id:1371833)

塔雷克·沙里夫 Tarek Sharif (id:1371834)

Peter Madden Peter Madden (id:1123404)

Leo L?hteenm?ki Leo L?hteenm?ki (id:1121940)

玛莉亚·马丁 María Martín (id:1124557)

格温·尼尔森 Gwen Nelson (id:1133276)

Roger Maxwell Roger Maxwell (id:1119896)

英格丽德·皮特 Ingrid Pitt (id:1135054)

罗伯特·里耶蒂 Robert Rietty (id:1146607)

维尔吉里奥·特谢拉 Virgilio Teixeira (id:1149166)

诺埃尔·威尔曼 Noel Willman (id:1164428)

Lili Muráti Lili Muráti (id:1135597)

杰克·麦高恩 Jack MacGowran (id:1118141)

伯纳德·凯 Bernard Kay (id:1113335)

Ricardo Palacios Ricardo Palacios (id:1033297)

阿尔多·桑布雷利 Aldo Sambrell (id:1032635)

克劳斯·金斯基 Klaus Kinski (id:1027898)

阿德琳妮·柯瑞 Adrienne Corri (id:1041282)

Víctor Israel Víctor Israel (id:1109843)

格佛雷·肯 Geoffrey Keen (id:1105060)

马克·伊登 Mark Eden (id:1005364)

Wolf Frees Wolf Frees (id:1089270)

何塞·玛丽亚·卡法雷尔 José María Caffarel (id:1078931)

Erik Chitty Erik Chitty (id:1077802)

Luana Alca?iz Luana Alca?iz (id:1060000)

José Nieto José Nieto (id:1048538)

Arvid Griffen Arvid Griffen (id:1054127)

卡罗·庞蒂 Carlo Ponti (id:1036827)

莫里斯·雅尔 Maurice Jarre (id:1050191)

弗雷迪·扬 Freddie Young (id:1028482)

诺尔曼·萨维奇 Norman Savage (id:1296762)

艾琳·霍华德 Irene Howard (id:1099854)

约翰·博克斯 John Box (id:1005986)

达里奥·西蒙尼 Dario Simoni (id:1297647)

泰伦斯·马什 Terence Marsh (id:1042324)

希尔·帕隆多 Gil Parrondo (id:1020352)

菲利斯·达尔顿 Phyllis Dalton (id:1281746)

罗伊史蒂文 Roy Stevens (id:1298414)

◎简 介

幼年丧母的日瓦戈(Omar Sharif 饰)被过继给母亲的朋友,自此与继母一家的小女儿冬妮娅一同成长,并顺利修完医学专业,成为了一名优秀的医生。在另一条平行的生命线上,出生于裁缝之家的拉娜(Julie Christie 饰)正是十七岁的金色年华,母亲的情人维克多不时骚扰她,热衷于工人革命的未婚夫帕夏更让拉娜日日为其担忧。在工人运动风起云涌的日子里,日瓦戈目睹了当局对工人的残酷镇压,拉娜则因帕夏被卷入工人运动而遭到维克多的玷污,由于维克多的关系,日瓦戈与拉娜的人生终于汇合,在不久后混乱的一战中,他们终于不顾各自的伴侣陷入了热恋……不久布尔什维克掌握政权,返回家乡与冬妮娅团聚的日瓦戈发现生活却每况愈下,以至他们不得不远赴乡村谋生,岂料在遥远的北方村落,日瓦戈再次与拉娜相遇……

本片根据Pasternak的同名小说改编,获1966年奥斯卡最佳美术指导、最...

◎获奖情况 (共11项)

第38届奥斯卡金像奖 (1966)

最佳影片(提名)

└──卡罗·庞蒂 (id:1036827)

最佳导演(提名)

└──大卫·里恩 (id:1002783)

最佳男配角(提名)

└──汤姆·康特奈 (id:1032222)

最佳改编剧本

└──罗伯特·鲍特 (id:1023062)

彩色片最佳摄影

└──弗雷迪·扬 (id:1028482)

最佳剪辑(提名)

└──诺尔曼·萨维奇 (id:1296762)

最佳音响(提名)

彩色片最佳艺术指导和布景

彩色片最佳服装设计

└──菲利斯·达尔顿 (id:1281746)

最佳配乐

└──莫里斯·雅尔 (id:1050191)

第19届戛纳电影节 (1966)

主竞赛单元 金棕榈奖(提名)

└──大卫·里恩 (id:1002783)

  1. ##### MediaInfo ######

  2. General

  3. Unique ID : 214061239284335738181088416330820257351 (0xA10AB1EFE9C5113EBDE2749B28D68647)

  4. Complete name : Doctor.Zhivago.1965.BluRay.1080p.x265.10bit.4Audio-MiniHD.mkv

  5. Format : Matroska

  6. Format version : Version 4

  7. File size : 9.48 GiB

  8. Duration : 3 h 20 min

  9. Overall bit rate : 6 784 kb/s

  10. Encoded date : UTC 2017-04-21 02:50:22

  11. Writing application : mkvmerge v9.7.1 ('Pandemonium') 64bit

  12. Writing library : libebml v1.3.4 + libmatroska v1.4.5

  13. Video

  14. ID : 1

  15. Format : HEVC

  16. Format/Info : High Efficiency Video Coding

  17. Format profile : Main 10@L4@Main

  18. Codec ID : V_MPEGH/ISO/HEVC

  19. Duration : 3 h 20 min

  20. Bit rate : 5 433 kb/s

  21. Width : 1 920 pixels

  22. Height : 800 pixels

  23. Display aspect ratio : 2.40:1

  24. Frame rate mode : Constant

  25. Frame rate : 23.976 (24000/1001/53354) FPS

  26. Color space : YUV

  27. Chroma subsampling : 4:2:0

  28. Bit depth : 10 bits

  29. Bits/(Pixel*Frame) : 0.148

  30. Stream size : 7.59 GiB (80%)

  31. Writing library : x265 2.3+32-1ed218717877:[Windows][GCC 6.3.0][64 bit] 10bit

  32. Encoding settings : cpuid=533541173503 / frame-threads=6 / numa-pools=36 / wpp / no-pmode / no-pme / no-psnr / no-ssim / log-level=2 / input-csp=1 / input-res=1920x800 / interlace=0 / total-frames=287836 / level-idc=0 / high-tier=1 / uhd-bd=0 / ref=5 / no-allow-non-conformance / no-repeat-headers / annexb / no-aud / no-hrd / info / hash=0 / no-temporal-layers / no-open-gop / min-keyint=1 / keyint=360 / bframes=8 / b-adapt=2 / b-pyramid / bframe-bias=0 / rc-lookahead=60 / lookahead-slices=4 / NTMzNTQ=uuDQuD2mJt9fsCf / scenecut=40 / no-intra-refresh / ctu=32 / min-cu-size=8 / rect / no-amp / max-tu-size=16 / tu-inter-depth=2 / tu-intra-depth=2 / limit-tu=4 / rdoq-level=2 / dynamic-rd=0.00 / ssim-rd / signhide / no-tskip / nr-intra=0 / nr-inter=0 / no-constrained-intra / no-strong-intra-smoothing / max-merge=3 / limit-refs=1 / limit-modes / me=3 / subme=5 / merange=25 / temporal-mvp / weightp / weightb / no-analyze-src-pics / deblock=-1:-1 / no-sao / no-sao-non-deblock / rd=4 / no-early-skip / rskip / no-fast-intra / no-tskip-fast / no-cu-lossless / b-intra / rdpenalty=1 / psy-rd=0.00 / psy-rdoq=5.00 / no-rd-refine / analysis-mode=0 / no-lossless / cbqpoffs=-2 / crqpoffs=-2 / rc=crf / crf=20.0 / qcomp=0.65 / qpstep=4 / stats-write=0 / stats-read=0 / ipratio=1.40 / pbratio=1.30 / aq-mode=2 / aq-strength=0.80 / cutree / zone-count=0 / no-strict-cbr / qg-size=16 / no-rc-grain / qpmax=69 / qpmin=0 / sar=0 / overscan=0 / videoformat=5 / range=0 / colorprim=1 / transfer=2 / colormatrix=2 / chromaloc=0 / display-window=0 / max-cll=0,0 / min-luma=0 / max-luma=1023 / log2-max-poc-lsb=8 / vui-timing-info / vui-hrd-info / slices=1 / opt-qp-pps / opt-ref-list-length-pps / no-multi-pass-opt-rps / scenecut-bias=0.05 / no-opt-cu-delta-qp / no-aq-motion / no-hdr / no-hdr-opt / refine-level=5 / no-limit-sao

  33. Default : Yes

  34. Forced : No

  35. Color range : Limited

  36. Color primaries : BT.709

  37. Audio #1

  38. ID : 2

  39. Format : AC-3

  40. Format/Info : Audio Coding 3

  41. Commercial name : Dolby Digital

  42. Codec ID : A_AC3

  43. Duration : 3 h 20 min

  44. Bit rate mode : Constant

  45. Bit rate : 640 kb/s

  46. Channel(s) : 6 channels

  47. Channel layout : L R C LFE Ls Rs

  48. Sampling rate : 48.0 kHz

  49. Frame rate : 31.250 FPS (1536 SPF)

  50. Compression mode : Lossy

  51. Stream size : 916 MiB (9%)

  52. Language : English

  53. Service kind : Complete Main

  54. Default : Yes

  55. Forced : No

  56. Audio #2

  57. ID : 3

  58. Format : AC-3

  59. Format/Info : Audio Coding 3

  60. Commercial name : Dolby Digital

  61. Codec ID : A_AC3

  62. Duration : 3 h 20 min

  63. Bit rate mode : Constant

  64. Bit rate : 192 kb/s

  65. Channel(s) : 2 channels

  66. Channel layout : L R

  67. Sampling rate : 48.0 kHz

  68. Frame rate : 31.250 FPS (1536 SPF)

  69. Compression mode : Lossy

  70. Stream size : 275 MiB (3%)

  71. Language : Chinese

  72. Service kind : Complete Main

  73. Default : No

  74. Forced : No

  75. Audio #3

  76. ID : 4

  77. Format : AC-3

  78. Format/Info : Audio Coding 3

  79. Commercial name : Dolby Digital

  80. Codec ID : A_AC3

  81. Duration : 3 h 20 min

  82. Bit rate mode : Constant

  83. Bit rate : 192 kb/s

  84. Channel(s) : 2 channels

  85. Channel layout : L R

  86. Sampling rate : 48.0 kHz

  87. Frame rate : 31.250 FPS (1536 SPF)

  88. Compression mode : Lossy

  89. Stream size : 275 MiB (3%)

  90. Language : Chinese

  91. Service kind : Complete Main

  92. Default : No

  93. Forced : No

  94. Audio #4

  95. ID : 5

  96. Format : AC-3

  97. Format/Info : Audio Coding 3

  98. Commercial name : Dolby Digital

  99. Codec ID : A_AC3

  100. Duration : 3 h 20 min

  101. Bit rate mode : Constant

  102. Bit rate : 192 kb/s

  103. Channel(s) : 2 channels

  104. Channel layout : L R

  105. Sampling rate : 48.0 kHz

  106. Frame rate : 31.250 FPS (1536 SPF)

  107. Compression mode : Lossy

  108. Stream size : 275 MiB (3%)

  109. Language : Chinese

  110. Service kind : Complete Main

  111. Default : No

  112. Forced : No

  113. Text #1

  114. ID : 6

  115. Format : PGS

  116. Muxing mode : zlib

  117. Codec ID : S_HDMV/PGS

  118. Codec ID/Info : Picture based subtitle format used on BDs/HD-DVDs

  119. Language : English

  120. Default : Yes

  121. Forced : No

  122. Text #2

  123. ID : 7

  124. Format : PGS

  125. Muxing mode : zlib

  126. Codec ID : S_HDMV/PGS

  127. Codec ID/Info : Picture based subtitle format used on BDs/HD-DVDs

  128. Language : Chinese

  129. Default : No

  130. Forced : No

  131. Text #3

  132. ID : 8

  133. Format : PGS

  134. Muxing mode : zlib

  135. Codec ID : S_HDMV/PGS

  136. Codec ID/Info : Picture based subtitle format used on BDs/HD-DVDs

  137. Language : Chinese

  138. Default : No

  139. Forced : No

  140. Text #4

  141. ID : 9

  142. Format : PGS

  143. Muxing mode : zlib

  144. Codec ID : S_HDMV/PGS

  145. Codec ID/Info : Picture based subtitle format used on BDs/HD-DVDs

  146. Language : Chinese

  147. Default : No

  148. Forced : No

  149. Menu

  150. 00:00:00.000 : en:Chapter 01

  151. 00:04:25.265 : en:Chapter 02

  152. 00:07:15.435 : en:Chapter 03

  153. 00:13:26.388 : en:Chapter 04

  154. 00:16:38.455 : en:Chapter 05

  155. 00:19:28.333 : en:Chapter 06

  156. 00:21:42.050 : en:Chapter 07

  157. 00:23:52.889 : en:Chapter 08

  158. 00:28:01.304 : en:Chapter 09

  159. 00:29:59.506 : en:Chapter 10

  160. 00:33:14.075 : en:Chapter 11

  161. 00:38:58.711 : en:Chapter 12

  162. 00:41:05.963 : en:Chapter 13

  163. 00:44:00.929 : en:Chapter 14

  164. 00:47:31.807 : en:Chapter 15

  165. 00:53:27.162 : en:Chapter 16

  166. 00:56:50.281 : en:Chapter 17

  167. 01:00:31.544 : en:Chapter 18

  168. 01:03:03.905 : en:Chapter 19

  169. 01:08:35.528 : en:Chapter 20

  170. 01:10:57.836 : en:Chapter 21

  171. 01:12:45.319 : en:Chapter 22

  172. 01:16:47.811 : en:Chapter 23

  173. 01:20:37.791 : en:Chapter 24

  174. 01:23:03.645 : en:Chapter 25

  175. 01:27:05.929 : en:Chapter 26

  176. 01:30:06.526 : en:Chapter 27

  177. 01:32:49.939 : en:Chapter 28

  178. 01:35:13.290 : en:Chapter 29

  179. 01:39:09.860 : en:Chapter 30

  180. 01:41:30.793 : en:Chapter 31

  181. 01:44:49.408 : en:Chapter 32

  182. 01:47:40.996 : en:Chapter 33

  183. 01:49:50.208 : en:Chapter 34

  184. 01:53:25.381 : en:Chapter 35

  185. 01:56:52.213 : en:Chapter 36

  186. 01:58:41.531 : en:Chapter 37

  187. 01:59:42.300 : en:Chapter 38

  188. 02:01:38.290 : en:Chapter 39

  189. 02:03:21.811 : en:Chapter 40

  190. 02:09:04.153 : en:Chapter 41

  191. 02:12:34.863 : en:Chapter 42

  192. 02:15:06.473 : en:Chapter 43

  193. 02:17:16.895 : en:Chapter 44

  194. 02:19:59.015 : en:Chapter 45

  195. 02:24:56.854 : en:Chapter 46

  196. 02:30:06.872 : en:Chapter 47

  197. 02:32:55.749 : en:Chapter 48

  198. 02:36:21.371 : en:Chapter 49

  199. 02:40:56.146 : en:Chapter 50

  200. 02:45:05.353 : en:Chapter 51

  201. 02:47:49.642 : en:Chapter 52

  202. 02:53:30.733 : en:Chapter 53

  203. 02:56:54.103 : en:Chapter 54

  204. 03:03:47.516 : en:Chapter 55

  205. 03:07:39.456 : en:Chapter 56

  206. 03:09:42.245 : en:Chapter 57

  207. 03:10:56.319 : en:Chapter 58

  208. 03:14:20.357 : en:Chapter 59

  209. 03:15:35.014 : en:Chapter 60

  210. 03:18:18.761 : en:Chapter 61


复制代码


TAGS 剧情 爱情 战争 /

磁力链:
  • magnet:?xt=urn:btih:D7910289AC4F9A7A214E54C8131FECE5C9C123C7
上传的附件:
BT9527电影天堂 1、BT9527电影天堂提供的BT文件均来源于互联网抓取,只供网友学习交流、技术提升使用。
2、我们遵守BitTorrent点对点协议原则,任何版权问题请联系原资源发布商,我们不处理任何版权纠纷,谢谢!如有争议请联系邮箱:BT9527#hotmail.com(#换成@)
3、如果您发现某页面或地址有错误,请联系站长邮箱BT9527#hotmail.com(#换成@),我们会尽快处理。您的热心是对BT9527电影天堂最大的支持。
4、本站建议去正规影院观看电影以支持电影行业发展。
最新回复 (0)

你可以在 登录 or 注册 后,对此帖发表评论!

返回
发新帖