无名女尸[中英字幕].The.Autopsy.of.Jane.Doe.2016.BluRay.1080p.x265.10bit-MiniHD 1.08GB

版主小s 4月前 426

◎译 名 无名女尸 / 验尸官(台) / 无名尸诅咒(港) / 尸检无名女尸

◎片 名 The Autopsy of Jane Doe

◎年 代 2016

◎产 地 英国

◎类 别 恐怖

◎语 言 英语

◎上映日期 2016-09-09(多伦多电影节) / 2016-12-21(美国) / 2017-03-31(英国)

◎IMDb链接 https://www.imdb.com/title/tt3289956/

◎豆瓣评分 7.6/10 (108041人评价)

◎豆瓣链接 https://movie.douban.com/subject/26339213/

◎片 长 86分钟(网络版)

◎导 演 安德烈·艾弗道夫 André ?vredal (id:1352843)

◎编 剧 伊恩·B·戈德堡 Ian B. Goldberg (id:1366331)

理查德·纳英 Richard Naing (id:1366332)

埃里克·伊恩·戈德堡 Eric Ian Goldberg (id:1091230)

◎演 员 埃米尔·赫斯基 Emile Hirsch (id:1040998)

布莱恩·考克斯 Brian Cox (id:1019027)

奥菲利亚·拉维邦德 Ophelia Lovibond (id:1004674)

迈克尔·麦克埃尔哈顿 Michael McElhatton (id:1291550)

奥尔雯·凯瑟琳·凯莉 Olwen Catherine Kelly (id:1366252)

帕克·索耶 Parker Sawyers (id:1349433)

简·佩里 Jane Perry (id:1366333)

丹尼·本斯 Danny Bensi (id:1445092)

桑德·朱里亚 Saunder Jurriaans (id:1445115)

◎简 介

奥斯丁(埃米尔·赫斯基 Emile Hirsch 饰)和父亲汤米(布莱恩·考克斯 Brian Cox 饰)同为镇上的验尸官,某天晚上,刑警谢尔顿(迈克尔·麦克埃尔哈顿 Michael McElhatton 饰)送来了一具无名女尸,希望汤米和奥斯丁能够在天亮之前弄清楚她身上的秘密。

奇怪的是,这具女尸身上没有任何的淤青或伤口,然而她的内脏和骨骼却伤痕累累,很显然生前遭到了残酷的虐待。在解剖的过程中,难以用科学解释的谜团越来越多,挑战着汤米丰富的经验和好奇心,而屋外忽然降下的暴雨亦给这个不平凡的晚上带来了一丝阴森的气氛。行踪诡异的人影,忽近忽远的脚步,似真似幻的可怕光景,很快,父子两人便发现,他们要做的最重要的事情并不是解开女尸之谜,而是尽快的逃离她,逃得越远越好。

◎获奖情况 (共1项)

第3届豆瓣电影年度榜单 (2016)

评分最高的恐怖片(提名)

  1. ##### MediaInfo ######

  2. General

  3. Unique ID : 245951861270564899785170649455936757131 (0xB9089AFEC3572848AA1B149A63BD5D8B)

  4. Complete name : The.Autopsy.of.Jane.Doe.2016.BluRay.1080p.x265.10bit-MiniHD.mkv

  5. Format : Matroska

  6. Format version : Version 4

  7. File size : 1.08 GiB

  8. Duration : 1 h 26 min

  9. Overall bit rate : 1 784 kb/s

  10. Encoded date : UTC 2017-04-16 12:28:02

  11. Writing application : mkvmerge v9.2.0 ('Photograph') 32bit

  12. Writing library : libebml v1.3.3 + libmatroska v1.4.4

  13. Video

  14. ID : 1

  15. Format : HEVC

  16. Format/Info : High Efficiency Video Coding

  17. Format profile : Main 10@L4@Main

  18. Codec ID : V_MPEGH/ISO/HEVC

  19. Duration : 1 h 26 min

  20. Bit rate : 1 364 kb/s

  21. Width : 1 920 pixels

  22. Height : 800 pixels

  23. Display aspect ratio : 2.40:1

  24. Frame rate mode : Constant

  25. Frame rate : 23.976 (24000/1001/53354) FPS

  26. Color space : YUV

  27. Chroma subsampling : 4:2:0

  28. Bit depth : 10 bits

  29. Bits/(Pixel*Frame) : 0.037

  30. Stream size : 844 MiB (76%)

  31. Writing library : x265 2.1+36-d216cb9b3b47:[Windows][GCC 6.2.0][64 bit] 10bit

  32. Encoding settings : wpp / ctu=32 / min-cu-size=8 / max-tu-size=16 / tu-intra-depth=2 / tu-inter-depth=2 / me=3 / subme=5 / merange=25 / rect / no-amp / max-merge=3 / temporal-mvp / no-early-skip / rskip / rdpenalty=1 / no-tskip / no-tskip-fast / no-strong-intra-smoothing / no-lossless / no-cu-lossless / no-constrained-intra / no-fast-intra / no-open-gop / no-temporal-layers / interlace=0 / keyint=360 / min-keyint=1 / NTMzNTQ=uuDQuD2mJt9fsCf / scenecut=40 / bias-for-scenecut=0.05 / rc-lookahead=60 / lookahead-slices=4 / bframes=8 / bframe-bias=0 / b-adapt=2 / ref=5 / limit-refs=3 / limit-modes / weightp / weightb / aq-mode=3 / qg-size=16 / aq-strength=0.90 / cbqpoffs=-2 / crqpoffs=-2 / rd=4 / psy-rd=1.00 / rdoq-level=2 / psy-rdoq=5.00 / log2-max-poc-lsb=8 / limit-tu=0 / no-rd-refine / signhide / deblock=-1:-1 / no-sao / no-sao-non-deblock / b-pyramid / cutree / no-intra-refresh / rc=crf / crf=21.0 / qcomp=0.70 / qpmin=0 / qpmax=69 / qpstep=4 / ipratio=1.40 / pbratio=1.30

  33. Default : Yes

  34. Forced : No

  35. Color range : Limited

  36. Color primaries : BT.709

  37. Audio

  38. ID : 2

  39. Format : AC-3

  40. Format/Info : Audio Coding 3

  41. Commercial name : Dolby Digital

  42. Codec ID : A_AC3

  43. Duration : 1 h 26 min

  44. Bit rate mode : Constant

  45. Bit rate : 384 kb/s

  46. Channel(s) : 6 channels

  47. Channel layout : L R C LFE Ls Rs

  48. Sampling rate : 48.0 kHz

  49. Frame rate : 31.250 FPS (1536 SPF)

  50. Compression mode : Lossy

  51. Stream size : 237 MiB (22%)

  52. Language : English

  53. Service kind : Complete Main

  54. Default : Yes

  55. Forced : No

  56. Text #1

  57. ID : 3

  58. Format : PGS

  59. Muxing mode : zlib

  60. Codec ID : S_HDMV/PGS

  61. Codec ID/Info : Picture based subtitle format used on BDs/HD-DVDs

  62. Language : English

  63. Default : Yes

  64. Forced : No

  65. Text #2

  66. ID : 4

  67. Format : PGS

  68. Muxing mode : zlib

  69. Codec ID : S_HDMV/PGS

  70. Codec ID/Info : Picture based subtitle format used on BDs/HD-DVDs

  71. Language : Chinese

  72. Default : No

  73. Forced : No

  74. Text #3

  75. ID : 5

  76. Format : PGS

  77. Muxing mode : zlib

  78. Codec ID : S_HDMV/PGS

  79. Codec ID/Info : Picture based subtitle format used on BDs/HD-DVDs

  80. Language : Chinese

  81. Default : No

  82. Forced : No

  83. Text #4

  84. ID : 6

  85. Format : PGS

  86. Muxing mode : zlib

  87. Codec ID : S_HDMV/PGS

  88. Codec ID/Info : Picture based subtitle format used on BDs/HD-DVDs

  89. Language : Chinese

  90. Default : No

  91. Forced : No

  92. Text #5

  93. ID : 7

  94. Format : PGS

  95. Muxing mode : zlib

  96. Codec ID : S_HDMV/PGS

  97. Codec ID/Info : Picture based subtitle format used on BDs/HD-DVDs

  98. Language : Chinese

  99. Default : No

  100. Forced : No

  101. Menu

  102. 00:00:00.000 : en:Chapter 01

  103. 00:15:18.417 : en:Chapter 02

  104. 00:26:51.610 : en:Chapter 03

  105. 00:43:47.625 : en:Chapter 04

  106. 00:55:10.807 : en:Chapter 05

  107. 01:06:08.965 : en:Chapter 06

  108. 01:13:33.200 : en:Chapter 07

  109. 01:21:44.900 : en:Chapter 08


复制代码


TAGS 恐怖

磁力链:
  • magnet:?xt=urn:btih:22922C8D768639FBBF7A88F1602B307B3B87779E
上传的附件:
BT9527电影天堂 1、BT9527电影天堂提供的BT文件均来源于互联网抓取,只供网友学习交流、技术提升使用。
2、我们遵守BitTorrent点对点协议原则,任何版权问题请联系原资源发布商,我们不处理任何版权纠纷,谢谢!如有争议请联系邮箱:BT9527#hotmail.com(#换成@)
3、如果您发现某页面或地址有错误,请联系站长邮箱BT9527#hotmail.com(#换成@),我们会尽快处理。您的热心是对BT9527电影天堂最大的支持。
4、本站建议去正规影院观看电影以支持电影行业发展。
最新回复 (0)

你可以在 登录 or 注册 后,对此帖发表评论!

返回
发新帖