整蛊专家[国语音轨/中英字幕].Tricky.Brains.1991.BluRay.1080p.x265.10bit.2Audio-MiniHD 3.32GB

版主小s 1月前 148

◎译 名 整蛊专家 / 求爱总动员 / 整人专家 / Tricky Brains

◎片 名 整蠱專家

◎年 代 1991

◎产 地 中国香港

◎类 别 喜剧 / 爱情

◎语 言 粤语

◎上映日期 1991-02-02(中国香港)

◎IMDb链接 https://www.imdb.com/title/tt0103328/

◎豆瓣评分 7.9/10 (252126人评价)

◎豆瓣链接 https://movie.douban.com/subject/1299680/

◎片 长 108分钟

◎导 演 王晶 Jing Wong (id:1274331)

◎编 剧 王晶 Jing Wong (id:1274331)

◎演 员 刘德华 Andy Lau (id:1054424)

周星驰 Stephen Chow (id:1048026)

关之琳 Rosamund Kwan (id:1028064)

邱淑贞 Chingmy Yau (id:1048296)

吴孟达 Man Tat Ng (id:1016771)

李子雄 Waise Lee (id:1037662)

王晶 Jing Wong (id:1274331)

成奎安 Fui-On Shing (id:1141665)

程东 John Ching Tung (id:1316720)

林华勋 Jameson Wa-Fan Lam (id:1369702)

胡立成 Licheng Hu (id:1331134)

龙彪 Biu Lung (id:1439134)

周树基 Kent Chow Shu-Kei (id:1411711)

林富伟 Fu-wai Lam (id:1433957)

吴育枢 Jackson Ng Yuk-Sue (id:1361260)

伍国健 Kwok-kin Ng (id:1418713)

苏伟南 Wai-Nam So (id:1433165)

邓泰和 Tai Wo Tang (id:1394346)

余慕莲 Mo-Lin Yu (id:1345424)

陈百祥 Pak-cheung Chan (id:1070608)

鲍汉琳 Hon Lam Bau (id:1125264)

林迪安 Dion Lam (id:1289289)

陈曼娜 Man-Na Chan (id:1322110)

曹查理 Charlie Cho (id:1275320)

鲁芬 Fun Lo (id:1316723)

江道海 To-hoi Kong (id:1327763)

潘健君 Kin-Kwan Poon (id:1289158)

向华胜 Jimmy Heung (id:1327878)

江玉仪 Ivy Kong (id:1275631)

卢冠廷 Lowell Lo (id:1290255)

鲍德熹 Peter Pau (id:1294116)

颜丽如 Jo-Jo Ngan (id:1355662)

◎简 介

大好青年车文杰(刘德华 饰)邂逅了公司老板千金程乐儿(关之琳 饰),在乐儿好友Banana(邱淑贞 饰)的撮合下两人迅速陷入热恋。乐儿前男友金默基(李子雄 饰)得知情况后,马上对车文杰产生敌意,聘请整蛊专家古晶(周星驰 饰)作弄车文杰,让他一无所有。于是古晶假扮车文杰父亲车亲仁(吴孟达 饰)从大陆来的私生子,从中捣乱。古晶的到来令车文杰的生活打乱,一切事仿佛都在古晶的操控之中。但Banana发现了古晶的真实身份,劝古晶顾念车家父子对他的照顾,转过头帮忙车文杰对付金默基。

  1. ##### MediaInfo ######

  2. General

  3. Unique ID : 170674058884096099332404934534759038870 (0x8066A0C96CC2205F8F58A5C68B29BF96)

  4. Complete name : Tricky.Brains.1991.BluRay.1080p.x265.10bit.2Audio-MiniHD.mkv

  5. Format : Matroska

  6. Format version : Version 4

  7. File size : 3.32 GiB

  8. Duration : 1 h 47 min

  9. Overall bit rate : 4 421 kb/s

  10. Encoded date : UTC 2017-06-14 11:49:55

  11. Writing application : mkvmerge v11.0.0 ('Alive') 64bit

  12. Writing library : libebml v1.3.4 + libmatroska v1.4.5

  13. Video

  14. ID : 1

  15. Format : HEVC

  16. Format/Info : High Efficiency Video Coding

  17. Codec ID : V_MPEGH/ISO/HEVC

  18. Duration : 1 h 47 min

  19. Bit rate : 3 373 kb/s

  20. Width : 1 920 pixels

  21. Height : 1 080 pixels

  22. Display aspect ratio : 16:9

  23. Frame rate mode : Constant

  24. Frame rate : 24.000 FPS

  25. Bits/(Pixel*Frame) : 0.068

  26. Stream size : 2.53 GiB (76%)

  27. Default : Yes

  28. Forced : No

  29. Audio #1

  30. ID : 2

  31. Format : AC-3

  32. Format/Info : Audio Coding 3

  33. Commercial name : Dolby Digital

  34. Codec ID : A_AC3

  35. Duration : 1 h 47 min

  36. Bit rate mode : Constant

  37. Bit rate : 320 kb/s

  38. Channel(s) : 2 channels

  39. Channel layout : L R

  40. Sampling rate : 48.0 kHz

  41. Frame rate : 31.250 FPS (1536 SPF)

  42. Compression mode : Lossy

  43. Stream size : 246 MiB (7%)

  44. Language : Chinese

  45. Service kind : Complete Main

  46. Default : Yes

  47. Forced : No

  48. Audio #2

  49. ID : 3

  50. Format : AC-3

  51. Format/Info : Audio Coding 3

  52. Commercial name : Dolby Digital

  53. Codec ID : A_AC3

  54. Duration : 1 h 47 min

  55. Bit rate mode : Constant

  56. Bit rate : 640 kb/s

  57. Channel(s) : 6 channels

  58. Channel layout : L R C LFE Ls Rs

  59. Sampling rate : 48.0 kHz

  60. Frame rate : 31.250 FPS (1536 SPF)

  61. Compression mode : Lossy

  62. Stream size : 492 MiB (14%)

  63. Language : Chinese

  64. Service kind : Complete Main

  65. Default : No

  66. Forced : No

  67. Text #1

  68. ID : 4

  69. Format : PGS

  70. Muxing mode : zlib

  71. Codec ID : S_HDMV/PGS

  72. Codec ID/Info : Picture based subtitle format used on BDs/HD-DVDs

  73. Language : Chinese

  74. Default : Yes

  75. Forced : No

  76. Text #2

  77. ID : 5

  78. Format : PGS

  79. Muxing mode : zlib

  80. Codec ID : S_HDMV/PGS

  81. Codec ID/Info : Picture based subtitle format used on BDs/HD-DVDs

  82. Language : Chinese

  83. Default : No

  84. Forced : No

  85. Text #3

  86. ID : 6

  87. Format : PGS

  88. Muxing mode : zlib

  89. Codec ID : S_HDMV/PGS

  90. Codec ID/Info : Picture based subtitle format used on BDs/HD-DVDs

  91. Language : English

  92. Default : No

  93. Forced : No

  94. Menu

  95. 00:00:00.000 : en:Chapter 01

  96. 00:08:39.125 : en:Chapter 02

  97. 00:19:00.291 : en:Chapter 03

  98. 00:26:37.416 : en:Chapter 04

  99. 00:37:54.166 : en:Chapter 05

  100. 00:44:41.041 : en:Chapter 06

  101. 00:54:53.041 : en:Chapter 07

  102. 01:02:34.833 : en:Chapter 08

  103. 01:10:06.166 : en:Chapter 09

  104. 01:21:32.083 : en:Chapter 10

  105. 01:28:25.125 : en:Chapter 11

  106. 01:39:03.833 : en:Chapter 12


复制代码


TAGS 喜剧 爱情 /

磁力链:
  • magnet:?xt=urn:btih:42F00A80161DC7FC9F3D7CBA010495D09E40C9EB
上传的附件:
BT9527电影天堂 1、BT9527电影天堂提供的BT文件均来源于互联网抓取,只供网友学习交流、技术提升使用。
2、我们遵守BitTorrent点对点协议原则,任何版权问题请联系原资源发布商,我们不处理任何版权纠纷,谢谢!如有争议请联系邮箱:BT9527#hotmail.com(#换成@)
3、如果您发现某页面或地址有错误,请联系站长邮箱BT9527#hotmail.com(#换成@),我们会尽快处理。您的热心是对BT9527电影天堂最大的支持。
4、本站建议去正规影院观看电影以支持电影行业发展。
最新回复 (0)

你可以在 登录 or 注册 后,对此帖发表评论!

返回
发新帖