斯隆女士[中英字幕].Miss.Sloane.2016.BluRay.1080p.x265.10bit-MiniHD 4.16GB

版主小s 25天前 203

◎译 名 斯隆女士 / 枪狂帝国(港) / 攻敌必救(台) / 斯隆夫人

◎片 名 Miss Sloane

◎年 代 2016

◎产 地 美国 / 法国

◎类 别 剧情 / 悬疑

◎语 言 英语

◎上映日期 2016-11-11(AFI影展) / 2016-12-09(美国)

◎IMDb链接 https://www.imdb.com/title/tt4540710/

◎豆瓣评分 8.8/10 (87100人评价)

◎豆瓣链接 https://movie.douban.com/subject/26703158/

◎片 长 132分钟

◎导 演 约翰·马登 John Madden (id:1055714)

◎编 剧 乔纳森·佩雷拉 Jonathan Perera (id:1370366)

◎演 员 杰西卡·查斯坦 Jessica Chastain (id:1000225)

古古·姆巴塔-劳 Gugu Mbatha-Raw (id:1316167)

约翰·利思戈 John Lithgow (id:1027824)

艾丽森·皮尔 Alison Pill (id:1036381)

迈克尔·斯图巴 Michael Stuhlbarg (id:1009409)

马克·斯特朗 Mark Strong (id:1274374)

杰克·莱西 Jake Lacy (id:1344101)

道格拉斯·史密斯 Douglas Smith (id:1009415)

萨姆·沃特森 Sam Waterston (id:1041167)

迪伦·贝克 Dylan Baker (id:1027874)

恩尼斯·埃斯莫 Ennis Esmer (id:1184086)

梅格翰·法伊 Meghann Fahy (id:1325858)

亚历桑德拉·卡斯蒂略 Alexandra Castillo (id:1071983)

凯尔·麦克 Kyle Mac (id:1370367)

杰克·默里 Jack Murray (id:1370368)

克里斯汀·芭伦斯基 Christine Baranski (id:1048137)

大卫·威尔逊·巴恩斯 David Wilson Barnes (id:1313081)

雷欧·巴奈扎 Raoul Bhaneja (id:1019251)

马克斯·李希特 Max Richter (id:1309919)

斯蒂芬妮·英格拉姆 Stephanie Ingram (id:1470375)

◎简 介

在华盛顿呼风唤雨的政治说客斯隆女士,在美国枪击事件接连发生的情况下,不惜牺牲自己的职业生涯,以督促政府实施更严格的联邦法律规范枪支。

◎获奖情况 (共4项)

第74届金球奖 (2017)

电影类 剧情片最佳女主角(提名)

└──杰西卡·查斯坦 (id:1000225)

第41届日本电影学院奖 (2018)

最佳外语片(提名)

第15届华盛顿影评人协会奖 (2016)

华盛顿特区最佳写照(提名)

第4届豆瓣电影年度榜单 (2017)

3月最受关注电影(提名)

  1. ##### MediaInfo ######

  2. General

  3. Unique ID : 180831531499069958756015514211820484759 (0x880AE2DA17FECEACB80DFF76B797B897)

  4. Complete name : Miss.Sloane.2016.BluRay.1080p.x265.10bit-MiniHD.mkv

  5. Format : Matroska

  6. Format version : Version 4

  7. File size : 4.15 GiB

  8. Duration : 2 h 12 min

  9. Overall bit rate : 4 505 kb/s

  10. Encoded date : UTC 2017-09-28 03:32:58

  11. Writing application : mkvmerge v11.0.0 ('Alive') 64bit

  12. Writing library : libebml v1.3.4 + libmatroska v1.4.5

  13. Video

  14. ID : 1

  15. Format : HEVC

  16. Format/Info : High Efficiency Video Coding

  17. Codec ID : V_MPEGH/ISO/HEVC

  18. Duration : 2 h 12 min

  19. Bit rate : 3 768 kb/s

  20. Width : 1 920 pixels

  21. Height : 802 pixels

  22. Display aspect ratio : 2.40:1

  23. Frame rate mode : Constant

  24. Frame rate : 24.000 FPS

  25. Bits/(Pixel*Frame) : 0.102

  26. Stream size : 3.47 GiB (84%)

  27. Default : Yes

  28. Forced : No

  29. Audio

  30. ID : 2

  31. Format : AC-3

  32. Format/Info : Audio Coding 3

  33. Commercial name : Dolby Digital

  34. Codec ID : A_AC3

  35. Duration : 2 h 12 min

  36. Bit rate mode : Constant

  37. Bit rate : 640 kb/s

  38. Channel(s) : 6 channels

  39. Channel layout : L R C LFE Ls Rs

  40. Sampling rate : 48.0 kHz

  41. Frame rate : 31.250 FPS (1536 SPF)

  42. Compression mode : Lossy

  43. Stream size : 604 MiB (14%)

  44. Language : English

  45. Service kind : Complete Main

  46. Default : Yes

  47. Forced : No

  48. Text #1

  49. ID : 3

  50. Format : PGS

  51. Muxing mode : zlib

  52. Codec ID : S_HDMV/PGS

  53. Codec ID/Info : Picture based subtitle format used on BDs/HD-DVDs

  54. Duration : 2 h 5 min

  55. Bit rate : 55.1 kb/s

  56. Count of elements : 4294

  57. Stream size : 49.3 MiB (1%)

  58. Language : English

  59. Default : Yes

  60. Forced : No

  61. Text #2

  62. ID : 4

  63. Format : PGS

  64. Muxing mode : zlib

  65. Codec ID : S_HDMV/PGS

  66. Codec ID/Info : Picture based subtitle format used on BDs/HD-DVDs

  67. Duration : 2 h 6 min

  68. Bit rate : 44.7 kb/s

  69. Count of elements : 4660

  70. Stream size : 40.5 MiB (1%)

  71. Language : Chinese

  72. Default : No

  73. Forced : No

  74. Menu

  75. 00:00:00.000 : en:Chapter 01

  76. 00:21:37.333 : en:Chapter 02

  77. 00:42:47.250 : en:Chapter 03

  78. 01:04:55.666 : en:Chapter 04

  79. 01:28:31.208 : en:Chapter 05

  80. 01:53:12.375 : en:Chapter 06


复制代码


TAGS 剧情 悬疑 /

磁力链:
  • magnet:?xt=urn:btih:3ED82CF89263A28A70D96ADDABD97ED0108A524B
上传的附件:
BT9527电影天堂 1、BT9527电影天堂提供的BT文件均来源于互联网抓取,只供网友学习交流、技术提升使用。
2、我们遵守BitTorrent点对点协议原则,任何版权问题请联系原资源发布商,我们不处理任何版权纠纷,谢谢!如有争议请联系邮箱:BT9527#hotmail.com(#换成@)
3、如果您发现某页面或地址有错误,请联系站长邮箱BT9527#hotmail.com(#换成@),我们会尽快处理。您的热心是对BT9527电影天堂最大的支持。
4、本站建议去正规影院观看电影以支持电影行业发展。
最新回复 (0)

你可以在 登录 or 注册 后,对此帖发表评论!

返回
发新帖