愤怒的小鸟2[国粤英多音轨/简繁英字幕].The.Angry.Birds.Movie.2.2019.BluRay.2160p.x265.10bit.HDR.5Audio-MiniHD 16.78GB

版主小s 1月前 144

◎译 名 愤怒的小鸟2 / 愤怒鸟大电影2(港) / 愤怒鸟玩电影2(台) / 愤怒的小鸟大电影2 / Angry Birds 2

◎片 名 The Angry Birds Movie 2

◎年 代 2019

◎产 地 芬兰 / 美国

◎类 别 喜剧 / 动画 / 冒险

◎语 言 英语

◎上映日期 2019-08-16(中国大陆) / 2019-08-14(美国)

◎IMDb链接 https://www.imdb.com/title/tt6095472/

◎豆瓣评分 6.9/10 (42149人评价)

◎豆瓣链接 https://movie.douban.com/subject/26863060/

◎片 长 96分钟

◎导 演 图鲁普·范·奥尔曼 Thurop Van Orman (id:1271783)

◎编 剧 彼得·阿克曼 Peter Ackerman (id:1276803)

◎演 员 杰森·苏戴奇斯 Jason Sudeikis (id:1049521)

比尔·哈德尔 Bill Hader (id:1017902)

乔什·加德 Josh Gad (id:1305235)

丹尼·麦克布莱德 Danny McBride (id:1013797)

彼特·丁拉基 Peter Dinklage (id:1019009)

妮琪·米娜 Nicki Minaj (id:1269692)

斯特林·K·布朗 Sterling K. Brown (id:1325589)

莱斯莉·琼斯 Leslie Jones (id:1287883)

奥卡菲娜 Awkwafina (id:1360857)

蕾切尔·布鲁姆 Rachel Bloom (id:1350550)

扎克·伍兹 Zach Woods (id:1245821)

欧赫尼奥·德尔维斯 Eugenio Derbez (id:1050224)

里尔·莱尔·哈瓦瑞 Lil Rel Howery (id:1369571)

德芙·卡梅隆 Dove Cameron (id:1324382)

贝克·班尼特 Beck Bennett (id:1335427)

布鲁克琳·普林斯 Brooklynn Prince (id:1382847)

阿尔玛·瓦萨诺 Alma Varsano (id:1420778)

菲丝·玛格丽特·基德曼-厄本 Faith Margaret Kidman-Urban (id:1420779)

桑迪·萝丝·厄本 Sunday Rose Urban (id:1420780)

吉妮西丝·坦尼翁 Genesis Tennon (id:1420781)

Thomas Bromhead Thomas Bromhead (id:1426526)

亚历克斯·赫什 Alex Hirsch (id:1351827)

张琦 Qi Zhang (id:1423663)

西托·佩雷拉 Heitor Pereira (id:1350525)

Megan Amram Megan Amram (id:1447881)

◎简 介

十年“欢喜冤家”猪鸟依旧如往常一样“互相拆台”。然而,“不速之客”发射冰球袭击了小鸟岛和猪猪岛,令双方不得不放下芥蒂,小鸟岛昔日英雄胖红联合小鸟伙伴们与曾经的对手“捣蛋猪”雷纳德一行组建了临时联盟,他们将前往全新冰封岛屿上阻止神秘反派的灭世计划。

  1. ##### MediaInfo ######

  2. General

  3. Unique ID : 80793257788684704090026936162513445052 (0x3CC837279956E340984BA321AB61E0BC)

  4. Complete name : The.Angry.Birds.Movie.2.2019.BluRay.2160p.x265.10bit.HDR.5Audio-MiniHD.mkv

  5. Format : Matroska

  6. Format version : Version 4

  7. File size : 16.8 GiB

  8. Duration : 1 h 36 min

  9. Overall bit rate mode : Variable

  10. Overall bit rate : 24.8 Mb/s

  11. Encoded date : UTC 2019-11-25 06:13:34

  12. Writing application : mkvmerge v27.0.0 ('Metropolis') 64-bit

  13. Writing library : libebml v1.3.6 + libmatroska v1.4.9

  14. Video

  15. ID : 1

  16. Format : HEVC

  17. Format/Info : High Efficiency Video Coding

  18. Format profile : Main 10@L5.1@High

  19. HDR format : SMPTE ST 2086, HDR10 compatible

  20. Codec ID : V_MPEGH/ISO/HEVC

  21. Duration : 1 h 36 min

  22. Bit rate : 16.8 Mb/s

  23. Width : 3 840 pixels

  24. Height : 2 076 pixels

  25. Display aspect ratio : 1.85:1

  26. Frame rate mode : Constant

  27. Frame rate : 23.976 (24000/1001/53354) FPS

  28. Color space : YUV

  29. Chroma subsampling : 4:2:0

  30. Bit depth : 10 bits

  31. Bits/(Pixel*Frame) : 0.088

  32. Stream size : 11.4 GiB (68%)

  33. Title : mUHD-FRDS

  34. Writing library : x265 3.1+2-g764455672+26:[Windows][+Erg`Djh+][Yuuki ] made by @Dongfangbubai

  35. Encoding settings : rc=crf / crf=18.0000 / qcomp=0.70 / qpstep=4 / stats-write=0 / stats-read=0 / vbv-maxrate=160000 / vbv-bufsize=160000 / vbv-init=0.9 / crf-max=0.0 / crf-min=0.0 / no-lossless / no-cu-lossless / aq-mode=1 / aq-strength=0.90 / cbqpoffs=-3 / crqpoffs=-3 / ipratio=1.40 / pbratio=1.30 / psy-rd=2.00 / psy-rdoq=3.00 / deblock=-1:-1 / ref=5 / limit-refs=0 / no-limit-modes / bframes=8 / b-adapt=2 / bframe-bias=0 / b-pyramid / b-intra / weightp / weightb / min-keyint=23 / max-keyint=240 / rc-lookahead=60 / gop-lookahead=0 / NTMzNTQ=uuDQuD2mJt9fsCf / scenecut=40 / radl=0 / max-cu-size=32 / min-cu-size=8 / me=3 / subme=4 / merange=25 / rdoq-level=2 / rd=4 / rdpenalty=1 / dynamic-rd=0.00 / no-rd-refine / ----- / no-cutree / no-sao / no-rect / no-amp / no-open-gop / wpp / pmode / pme / no-psnr / no-ssim / nr-intra=0 / nr-inter=0 / no-constrained-intra / no-strong-intra-smoothing / max-tu-size=32 / tu-inter-depth=2 / tu-intra-depth=2 / limit-tu=0 / qg-size=32 / qpmax=69 / qpmin=0 / ----- / cpuid=533541111039 / frame-threads=6 / numa-pools=54,- / log-level=2 / input-csp=1 / input-res=3840x2076 / interlace=0 / level-idc=0 / high-tier=1 / uhd-bd=0 / no-allow-non-conformance / no-repeat-headers / no-aud / hrd / info / hash=0 / no-temporal-layers / lookahead-slices=0 / no-splice / no-intra-refresh / no-ssim-rd / signhide / no-tskip / max-merge=3 / temporal-mvp / no-analyze-src-pics / no-sao-non-deblock / no-early-skip / no-rskip / no-fast-intra / no-tskip-fast / no-splitrd-skip / zone-count=0 / no-strict-cbr / no-rc-grain / no-const-vbv / sar=0 / overscan=0 / videoformat=5 / range=0 / colorprim=9 / transfer=16 / colormatrix=9 / chromaloc=0 / display-window=0 / master-display=G(13250,34500)B(7500,3000)R(34000,16000)WP(15635,16450)L(40000000,50)cll=1001,640 / min-luma=0 / max-luma=1023 / log2-max-poc-lsb=8 / vui-timing-info / vui-hrd-info / slices=1 / no-opt-qp-pps / no-opt-ref-list-length-pps / no-multi-pass-opt-rps / scenecut-bias=0.05 / no-opt-cu-delta-qp / no-aq-motion / hdr / hdr-opt / no-dhdr10-opt / no-idr-recovery-sei / analysis-reuse-level=5 / scale-factor=0 / refine-intra=0 / refine-inter=0 / refine-mv=0 / refine-ctu-distortion=0 / no-limit-sao / ctu-info=0 / no-lowpass-dct / refine-analysis-type=0 / copy-pic=1 / max-ausize-factor=1.0 / no-dynamic-refine / no-single-sei / no-hevc-aq / no-svt / no-field / qp-adaptation-range=1.00

  36. Default : Yes

  37. Forced : No

  38. Color range : Limited

  39. Color primaries : BT.2020

  40. Transfer characteristics : PQ

  41. Matrix coefficients : BT.2020 non-constant

  42. Mastering display color primaries : Display P3

  43. Mastering display luminance : min: 0.0050 cd/m2, max: 4000 cd/m2

  44. Maximum Content Light Level : 1001 cd/m2

  45. Maximum Frame-Average Light Level : 640 cd/m2

  46. Audio #1

  47. ID : 2

  48. Format : DTS XLL

  49. Format/Info : Digital Theater Systems

  50. Commercial name : DTS-HD Master Audio

  51. Codec ID : A_DTS

  52. Duration : 1 h 36 min

  53. Bit rate mode : Variable

  54. Bit rate : 5 328 kb/s

  55. Channel(s) : 8 channels

  56. Channel layout : C L R LFE Lb Rb Lss Rss

  57. Sampling rate : 48.0 kHz

  58. Frame rate : 93.750 FPS (512 SPF)

  59. Bit depth : 24 bits

  60. Compression mode : Lossless

  61. Delay relative to video : 8 ms

  62. Stream size : 3.60 GiB (21%)

  63. Language : English

  64. Default : No

  65. Forced : No

  66. Audio #2

  67. ID : 3

  68. Format : AC-3

  69. Format/Info : Audio Coding 3

  70. Commercial name : Dolby Digital

  71. Codec ID : A_AC3

  72. Duration : 1 h 36 min

  73. Bit rate mode : Constant

  74. Bit rate : 640 kb/s

  75. Channel(s) : 6 channels

  76. Channel layout : L R C LFE Ls Rs

  77. Sampling rate : 48.0 kHz

  78. Frame rate : 31.250 FPS (1536 SPF)

  79. Compression mode : Lossy

  80. Stream size : 443 MiB (3%)

  81. Language : English

  82. Service kind : Complete Main

  83. Default : Yes

  84. Forced : No

  85. Audio #3

  86. ID : 4

  87. Format : AC-3

  88. Format/Info : Audio Coding 3

  89. Commercial name : Dolby Digital

  90. Codec ID : A_AC3

  91. Duration : 1 h 36 min

  92. Bit rate mode : Constant

  93. Bit rate : 640 kb/s

  94. Channel(s) : 6 channels

  95. Channel layout : L R C LFE Ls Rs

  96. Sampling rate : 48.0 kHz

  97. Frame rate : 31.250 FPS (1536 SPF)

  98. Compression mode : Lossy

  99. Stream size : 443 MiB (3%)

  100. Title : 原盘国语

  101. Language : Chinese

  102. Service kind : Complete Main

  103. Default : No

  104. Forced : No

  105. Audio #4

  106. ID : 5

  107. Format : AC-3

  108. Format/Info : Audio Coding 3

  109. Commercial name : Dolby Digital

  110. Codec ID : A_AC3

  111. Duration : 1 h 36 min

  112. Bit rate mode : Constant

  113. Bit rate : 640 kb/s

  114. Channel(s) : 6 channels

  115. Channel layout : L R C LFE Ls Rs

  116. Sampling rate : 48.0 kHz

  117. Frame rate : 31.250 FPS (1536 SPF)

  118. Compression mode : Lossy

  119. Stream size : 443 MiB (3%)

  120. Title : 原盘粤语

  121. Language : Chinese

  122. Service kind : Complete Main

  123. Default : No

  124. Forced : No

  125. Audio #5

  126. ID : 6

  127. Format : AC-3

  128. Format/Info : Audio Coding 3

  129. Commercial name : Dolby Digital

  130. Codec ID : A_AC3

  131. Duration : 1 h 36 min

  132. Bit rate mode : Constant

  133. Bit rate : 640 kb/s

  134. Channel(s) : 6 channels

  135. Channel layout : L R C LFE Ls Rs

  136. Sampling rate : 48.0 kHz

  137. Frame rate : 31.250 FPS (1536 SPF)

  138. Compression mode : Lossy

  139. Stream size : 443 MiB (3%)

  140. Title : 原盘台配国语

  141. Language : Chinese

  142. Service kind : Complete Main

  143. Default : No

  144. Forced : No

  145. Text #1

  146. ID : 7

  147. Format : PGS

  148. Muxing mode : zlib

  149. Codec ID : S_HDMV/PGS

  150. Codec ID/Info : Picture based subtitle format used on BDs/HD-DVDs

  151. Duration : 1 h 33 min

  152. Bit rate : 28.9 kb/s

  153. Count of elements : 3350

  154. Stream size : 19.4 MiB (0%)

  155. Language : English

  156. Default : No

  157. Forced : No

  158. Text #2

  159. ID : 8

  160. Format : PGS

  161. Muxing mode : zlib

  162. Codec ID : S_HDMV/PGS

  163. Codec ID/Info : Picture based subtitle format used on BDs/HD-DVDs

  164. Duration : 1 h 36 min

  165. Bit rate : 28.0 kb/s

  166. Count of elements : 2776

  167. Stream size : 19.2 MiB (0%)

  168. Title : 原盘繁体(HK)

  169. Language : Chinese

  170. Default : No

  171. Forced : No

  172. Text #3

  173. ID : 9

  174. Format : PGS

  175. Muxing mode : zlib

  176. Codec ID : S_HDMV/PGS

  177. Codec ID/Info : Picture based subtitle format used on BDs/HD-DVDs

  178. Duration : 1 h 36 min

  179. Bit rate : 30.1 kb/s

  180. Count of elements : 2800

  181. Stream size : 20.7 MiB (0%)

  182. Title : 原盘简体

  183. Language : Chinese

  184. Default : Yes

  185. Forced : No

  186. Text #4

  187. ID : 10

  188. Format : PGS

  189. Muxing mode : zlib

  190. Codec ID : S_HDMV/PGS

  191. Codec ID/Info : Picture based subtitle format used on BDs/HD-DVDs

  192. Duration : 1 h 36 min

  193. Bit rate : 28.6 kb/s

  194. Count of elements : 2782

  195. Stream size : 19.6 MiB (0%)

  196. Title : 原盘繁体(TW)

  197. Language : Chinese

  198. Default : No

  199. Forced : No

  200. Text #5

  201. ID : 11

  202. Format : PGS

  203. Muxing mode : zlib

  204. Codec ID : S_HDMV/PGS

  205. Codec ID/Info : Picture based subtitle format used on BDs/HD-DVDs

  206. Duration : 1 h 34 min

  207. Bit rate : 44.9 kb/s

  208. Count of elements : 3432

  209. Stream size : 30.2 MiB (0%)

  210. Title : 简英双语

  211. Language : Chinese

  212. Default : No

  213. Forced : No


复制代码


TAGS 冒险 动画 喜剧 /

磁力链:
  • magnet:?xt=urn:btih:A0B1AA03F2B72E7C52754328A3C83F47A5F43A77
上传的附件:
BT9527电影天堂 1、BT9527电影天堂提供的BT文件均来源于互联网抓取,只供网友学习交流、技术提升使用。
2、我们遵守BitTorrent点对点协议原则,任何版权问题请联系原资源发布商,我们不处理任何版权纠纷,谢谢!如有争议请联系邮箱:BT9527#hotmail.com(#换成@)
3、如果您发现某页面或地址有错误,请联系站长邮箱BT9527#hotmail.com(#换成@),我们会尽快处理。您的热心是对BT9527电影天堂最大的支持。
4、本站建议去正规影院观看电影以支持电影行业发展。
最新回复 (0)

你可以在 登录 or 注册 后,对此帖发表评论!

返回
发新帖