救僵清道夫[国语音轨/中英字幕].Vampire.Cleanup.Department.2017.BluRay.1080p.x265.10bit.2Audio-MiniHD 6.24GB

版主小s 26天前 222

◎译 名 救僵清道夫 / 尸奔日记 / Vampire Cleanup Department

◎片 名 救殭清道夫

◎年 代 2017

◎产 地 中国香港

◎类 别 喜剧 / 恐怖

◎语 言 粤语 / 汉语普通话

◎上映日期 2017-03-16(中国香港)

◎IMDb链接 https://www.imdb.com/title/tt6270524/

◎豆瓣评分 5.4/10 (9080人评价)

◎豆瓣链接 https://movie.douban.com/subject/26759783/

◎片 长 94分钟

◎导 演 甄栢荣 Yan Pak Wing (id:1320827)

赵善恒 Sin-Hang Chiu (id:1328459)

◎编 剧 甄栢荣 Yan Pak Wing (id:1320827)

何永航 Ho Wing Hong (id:1375997)

章彦琦 Ashley Cheung (id:1372731)

◎演 员 钱小豪 Siu-hou Chin (id:1005415)

蔡瀚亿 Babyjohn Choi (id:1335563)

林明祯 Min-Chen Lin (id:1358564)

吴耀汉 Richard Ng (id:1037408)

邵音音 Yin-Yin Shaw (id:1297367)

袁祥仁 Cheung-Yan Yuen (id:1301574)

赵学而 Bondy Chiu (id:1003285)

黃奕晨 Dixon Wong (id:1368312)

罗莽 Meng Lo (id:1025509)

曾志伟 Eric Tsang (id:1002862)

詹瑞文 Sui-man Chim (id:1304196)

欧锦棠 Stephen Au (id:1275712)

赵善恒 Sin-Hang Chiu (id:1328459)

谭杏蓝 Hana Tam (id:1371362)

李尚正 Sheung-ching Lee (id:1326286)

章彦琦 Ashley Cheung (id:1372731)

甄栢荣 Yan Pak Wing (id:1320827)

余达志 Tat-chi Yu (id:1359517)

何永航 Ho Wing Hong (id:1375997)

王志文 Chi Man Wong (id:1472532)

文佩卿 Peiqing Wen (id:1336831)

夏雨 Yu Ha (id:1315323)

严嘉仪 Yim Ka Yee (id:1405545)

◎简 介

香港開埠以來,一直有殭屍出沒。城市隱藏著一傋綒檶频拿孛芙M織— 食環署特別行動組,簡稱VCD。半夜掃街的清道夫其實是殭屍獵人,巨大的垃圾桶裡藏著剛收伏的殭屍,旁人避而遠之的垃圾房…正正就是他們秘密基地!

善心宅男張春天(蔡瀚億飾)偶然被VCD打救,組織領頭(吳耀漢飾)發現他的血能抗屍毒,認定其潛力無限,要武功高強的打手葉之秋(錢小豪飾)、技術支援組老姜(袁祥仁飾)與大舊駒(羅莽飾)向他傳授畢生所學,繼承組織使命﹗

一次組織行動,張春天不忍傷害漂亮女殭屍小夏(林明禎飾),違反命令與她共住一室,引來百年老殭屍王的致命攻撃……

◎获奖情况 (共2项)

第37届香港电影金像奖 (2018)

最佳女配角(提名)

└──邵音音 (id:1297367)

最佳原创电影歌曲(提名)

  1. ##### MediaInfo ######

  2. General

  3. Unique ID : 216328313636386008273753742009076538864 (0xA2BF51551F4544A1A1B76B76F7EFDDF0)

  4. Complete name : Vampire.Cleanup.Department.2017.BluRay.1080p.x265.10bit.2Audio-MiniHD.mkv

  5. Format : Matroska

  6. Format version : Version 4

  7. File size : 6.24 GiB

  8. Duration : 1 h 33 min

  9. Overall bit rate : 9 530 kb/s

  10. Encoded date : UTC 2017-06-27 04:44:19

  11. Writing application : mkvmerge v11.0.0 ('Alive') 64bit

  12. Writing library : libebml v1.3.4 + libmatroska v1.4.5

  13. Video

  14. ID : 1

  15. Format : HEVC

  16. Format/Info : High Efficiency Video Coding

  17. Codec ID : V_MPEGH/ISO/HEVC

  18. Duration : 1 h 33 min

  19. Bit rate : 8 060 kb/s

  20. Width : 1 920 pixels

  21. Height : 1 038 pixels

  22. Display aspect ratio : 1.85:1

  23. Frame rate mode : Constant

  24. Frame rate : 24.000 FPS

  25. Bits/(Pixel*Frame) : 0.169

  26. Stream size : 5.28 GiB (85%)

  27. Default : Yes

  28. Forced : No

  29. Audio #1

  30. ID : 2

  31. Format : AC-3

  32. Format/Info : Audio Coding 3

  33. Commercial name : Dolby Digital

  34. Codec ID : A_AC3

  35. Duration : 1 h 33 min

  36. Bit rate mode : Constant

  37. Bit rate : 640 kb/s

  38. Channel(s) : 6 channels

  39. Channel layout : L R C LFE Ls Rs

  40. Sampling rate : 48.0 kHz

  41. Frame rate : 31.250 FPS (1536 SPF)

  42. Compression mode : Lossy

  43. Stream size : 429 MiB (7%)

  44. Language : Chinese

  45. Service kind : Complete Main

  46. Default : Yes

  47. Forced : No

  48. Audio #2

  49. ID : 3

  50. Format : AC-3

  51. Format/Info : Audio Coding 3

  52. Commercial name : Dolby Digital

  53. Codec ID : A_AC3

  54. Duration : 1 h 33 min

  55. Bit rate mode : Constant

  56. Bit rate : 640 kb/s

  57. Channel(s) : 6 channels

  58. Channel layout : L R C LFE Ls Rs

  59. Sampling rate : 48.0 kHz

  60. Frame rate : 31.250 FPS (1536 SPF)

  61. Compression mode : Lossy

  62. Stream size : 429 MiB (7%)

  63. Language : Chinese

  64. Service kind : Complete Main

  65. Default : No

  66. Forced : No

  67. Text #1

  68. ID : 4

  69. Format : PGS

  70. Muxing mode : zlib

  71. Codec ID : S_HDMV/PGS

  72. Codec ID/Info : Picture based subtitle format used on BDs/HD-DVDs

  73. Language : Chinese

  74. Default : Yes

  75. Forced : No

  76. Text #2

  77. ID : 5

  78. Format : PGS

  79. Muxing mode : zlib

  80. Codec ID : S_HDMV/PGS

  81. Codec ID/Info : Picture based subtitle format used on BDs/HD-DVDs

  82. Language : Chinese

  83. Default : No

  84. Forced : No

  85. Text #3

  86. ID : 6

  87. Format : PGS

  88. Muxing mode : zlib

  89. Codec ID : S_HDMV/PGS

  90. Codec ID/Info : Picture based subtitle format used on BDs/HD-DVDs

  91. Language : English

  92. Default : No

  93. Forced : No

  94. Menu

  95. 00:00:00.000 : en:Chapter 01

  96. 00:08:54.625 : en:Chapter 02

  97. 00:16:32.291 : en:Chapter 03

  98. 00:23:50.041 : en:Chapter 04

  99. 00:32:49.250 : en:Chapter 05

  100. 00:40:31.333 : en:Chapter 06

  101. 00:47:21.416 : en:Chapter 07

  102. 00:55:56.791 : en:Chapter 08

  103. 01:02:33.666 : en:Chapter 09

  104. 01:10:52.375 : en:Chapter 10

  105. 01:18:28.916 : en:Chapter 11

  106. 01:27:46.458 : en:Chapter 12


复制代码


TAGS 恐怖 喜剧 /

磁力链:
  • magnet:?xt=urn:btih:893F2F71776ABF703AEB107278422CE4E5505958
上传的附件:
BT9527电影天堂 1、BT9527电影天堂提供的BT文件均来源于互联网抓取,只供网友学习交流、技术提升使用。
2、我们遵守BitTorrent点对点协议原则,任何版权问题请联系原资源发布商,我们不处理任何版权纠纷,谢谢!如有争议请联系邮箱:BT9527#hotmail.com(#换成@)
3、如果您发现某页面或地址有错误,请联系站长邮箱BT9527#hotmail.com(#换成@),我们会尽快处理。您的热心是对BT9527电影天堂最大的支持。
4、本站建议去正规影院观看电影以支持电影行业发展。
最新回复 (0)

你可以在 登录 or 注册 后,对此帖发表评论!

返回
发新帖