放逐[国语音轨/中英字幕].Exiled.2006.BluRay.1080p.x265.10bit.2Audio-MiniHD 3.93GB

版主小s 4月前 347

◎译 名 放·逐 / 放逐 / Exiled

◎年 代 2006

◎产 地 中国香港

◎类 别 惊悚 / 犯罪

◎语 言 粤语

◎上映日期 2006-10-19(中国香港) / 2006-09-06(威尼斯电影节)

◎IMDb链接 https://www.imdb.com/title/tt0796212/

◎豆瓣评分 8.2/10 (109635人评价)

◎豆瓣链接 https://movie.douban.com/subject/1790577/

◎片 长 108分钟

◎导 演 杜琪峰 Johnnie To (id:1160186)

◎编 剧 司徒锦源 Kam-Yuen Szeto (id:1298766)

叶天成 Tin-Shing Yip (id:1306719)

杜琪峰 Johnnie To (id:1160186)

◎演 员 黄秋生 Anthony Wong Chau-Sang (id:1050076)

吴镇宇 Francis Ng (id:1037098)

张家辉 Nick Cheung (id:1037273)

任贤齐 Richie Jen (id:1009888)

何超仪 Josie Ho (id:1014212)

张耀扬 Roy Cheung (id:1012751)

林雪 Suet Lam (id:1274279)

任达华 Simon Yam (id:1031194)

林家栋 Ka Tung Lam (id:1050329)

张兆辉 Siu-Fai Cheung (id:1005843)

陈雅伦 Ellen Chan (id:1005623)

谭炳文 Ping-Man Tam (id:1317676)

许绍雄 Siu-Hung Hui (id:1274449)

黄志伟 Chi Wai Wong (id:1308890)

张家杰 Jeff Cheung (id:1391313)

黄华和 Wah Wo Wong (id:1355706)

鞠觉亮 Kok Leung Kuk (id:1315703)

庄澄 John Chong (id:1280710)

杜琪峰 Johnnie To (id:1160186)

丁云山 Wan San Ding (id:1388181)

盖·泽拉法 Guy Zerafa (id:1301675)

郑兆强 Siu-keung Cheng (id:1280597)

大卫·李察森 David M. Richardson (id:1295595)

张世杰 Stanley Cheung (id:1280624)

文润铃 Yun-Ling Man (id:1290093)

张家杰 Jeff Cheung (id:1391313)

罗永昌 Wing-cheong Law (id:1274489)

马文现 Stephen Ma (id:1290573)

◎简 介

澳门回归前三天,五位情深意重的杀手。杀手阿和(张家辉饰)与妻子阿静(何超仪饰)带着刚满一个月的孩子重返故地,阿火(黄秋生饰)与阿波(林雪饰)奉黑社会老大大飞(任达华饰)的命令来追杀阿和,但另一对好兄弟阿泰(吴镇宇饰)与阿猫(张耀扬饰)闻讯,为了情义前来阻止。冲突在阿和家突然爆发,又迅速重归平静。最后他们决定一起做一宗大买卖来解救阿和,在谢夫(张兆辉饰)那里,摆放在他们眼前的是两个选择:暗杀蛋卷强(林家栋饰)或者抢夺一吨黄金……最终他们选择了前者,然而却在餐厅和死对头大飞不期而遇,一场恶战难免。

◎获奖情况 (共13项)

第63届威尼斯电影节 (2006)

主竞赛单元 金狮奖 (提名)

└──杜琪峰 (id:1160186)

第43届台北金马影展 (2006)

金马奖 最佳剧情片(提名)

金马奖 最佳导演(提名)

└──杜琪峰 (id:1160186)

金马奖 最佳动作设计

金马奖 最佳剪辑(提名)

└──大卫·李察森 (id:1295595)

观众票选最佳影片

第26届香港电影金像奖 (2007)

最佳电影(提名)

└──杜琪峰 (id:1160186)

最佳导演(提名)

└──杜琪峰 (id:1160186)

最佳摄影(提名)

└──郑兆强 (id:1280597)

最佳剪接(提名)

└──大卫·李察森 (id:1295595)

第1届亚洲电影大奖 (2007)

最佳电影(提名)

最佳导演(提名)

└──杜琪峰 (id:1160186)

第7届华语电影传媒大奖 (2007)

评审团奖

└──杜琪峰 (id:1160186)

  1. ##### MediaInfo ######

  2. General

  3. Unique ID : 251969293735976554243044159129475415565 (0xBD8F85524FB6D85FB244B0B35C24FE0D)

  4. Complete name : Exiled.2006.BluRay.1080p.x265.10bit.2Audio.MNHD-FRDS.mkv

  5. Format : Matroska

  6. Format version : Version 4

  7. File size : 3.93 GiB

  8. Duration : 1 h 48 min

  9. Overall bit rate : 5 171 kb/s

  10. Encoded date : UTC 2017-06-23 04:43:57

  11. Writing application : mkvmerge v11.0.0 ('Alive') 64bit

  12. Writing library : libebml v1.3.4 + libmatroska v1.4.5

  13. Video

  14. ID : 1

  15. Format : HEVC

  16. Format/Info : High Efficiency Video Coding

  17. Codec ID : V_MPEGH/ISO/HEVC

  18. Duration : 1 h 48 min

  19. Bit rate : 3 788 kb/s

  20. Width : 1 920 pixels

  21. Height : 816 pixels

  22. Display aspect ratio : 2.35:1

  23. Frame rate mode : Constant

  24. Frame rate : 24.000 FPS

  25. Bits/(Pixel*Frame) : 0.101

  26. Stream size : 2.88 GiB (73%)

  27. Default : Yes

  28. Forced : No

  29. Audio #1

  30. ID : 2

  31. Format : AC-3

  32. Format/Info : Audio Coding 3

  33. Commercial name : Dolby Digital

  34. Codec ID : A_AC3

  35. Duration : 1 h 48 min

  36. Bit rate mode : Constant

  37. Bit rate : 640 kb/s

  38. Channel(s) : 6 channels

  39. Channel layout : L R C LFE Ls Rs

  40. Sampling rate : 48.0 kHz

  41. Frame rate : 31.250 FPS (1536 SPF)

  42. Compression mode : Lossy

  43. Stream size : 498 MiB (12%)

  44. Language : Chinese

  45. Service kind : Complete Main

  46. Default : Yes

  47. Forced : No

  48. Audio #2

  49. ID : 3

  50. Format : AC-3

  51. Format/Info : Audio Coding 3

  52. Commercial name : Dolby Digital

  53. Codec ID : A_AC3

  54. Duration : 1 h 48 min

  55. Bit rate mode : Constant

  56. Bit rate : 640 kb/s

  57. Channel(s) : 6 channels

  58. Channel layout : L R C LFE Ls Rs

  59. Sampling rate : 48.0 kHz

  60. Frame rate : 31.250 FPS (1536 SPF)

  61. Compression mode : Lossy

  62. Stream size : 498 MiB (12%)

  63. Language : Chinese

  64. Service kind : Complete Main

  65. Default : No

  66. Forced : No

  67. Text #1

  68. ID : 4

  69. Format : PGS

  70. Muxing mode : zlib

  71. Codec ID : S_HDMV/PGS

  72. Codec ID/Info : Picture based subtitle format used on BDs/HD-DVDs

  73. Language : Chinese

  74. Default : Yes

  75. Forced : No

  76. Text #2

  77. ID : 5

  78. Format : PGS

  79. Muxing mode : zlib

  80. Codec ID : S_HDMV/PGS

  81. Codec ID/Info : Picture based subtitle format used on BDs/HD-DVDs

  82. Language : Chinese

  83. Default : No

  84. Forced : No

  85. Text #3

  86. ID : 6

  87. Format : PGS

  88. Muxing mode : zlib

  89. Codec ID : S_HDMV/PGS

  90. Codec ID/Info : Picture based subtitle format used on BDs/HD-DVDs

  91. Language : English

  92. Default : No

  93. Forced : No

  94. Menu

  95. 00:00:00.000 : en:Chapter 01

  96. 00:03:56.332 : en:Chapter 02

  97. 00:09:02.250 : en:Chapter 03

  98. 00:15:15.333 : en:Chapter 04

  99. 00:19:08.500 : en:Chapter 05

  100. 00:25:02.583 : en:Chapter 06

  101. 00:32:45.958 : en:Chapter 07

  102. 00:35:42.250 : en:Chapter 08

  103. 00:37:53.875 : en:Chapter 09

  104. 00:46:45.708 : en:Chapter 10

  105. 00:50:30.458 : en:Chapter 11

  106. 00:55:45.958 : en:Chapter 12

  107. 01:00:57.958 : en:Chapter 13

  108. 01:06:17.125 : en:Chapter 14

  109. 01:10:21.207 : en:Chapter 15

  110. 01:15:45.332 : en:Chapter 16

  111. 01:20:49.875 : en:Chapter 17

  112. 01:25:10.916 : en:Chapter 18

  113. 01:33:27.000 : en:Chapter 19

  114. 01:41:14.833 : en:Chapter 20


复制代码


TAGS 惊悚 犯罪 /

磁力链:
  • magnet:?xt=urn:btih:0C4E5212499534F21971769933696C6BF06510C4
上传的附件:
BT9527电影天堂 1、BT9527电影天堂提供的BT文件均来源于互联网抓取,只供网友学习交流、技术提升使用。
2、我们遵守BitTorrent点对点协议原则,任何版权问题请联系原资源发布商,我们不处理任何版权纠纷,谢谢!如有争议请联系邮箱:BT9527#hotmail.com(#换成@)
3、如果您发现某页面或地址有错误,请联系站长邮箱BT9527#hotmail.com(#换成@),我们会尽快处理。您的热心是对BT9527电影天堂最大的支持。
4、本站建议去正规影院观看电影以支持电影行业发展。
最新回复 (0)

你可以在 登录 or 注册 后,对此帖发表评论!

返回
发新帖