摇啊摇,摇到外婆桥[国语音轨/中英字幕].Shanghai.Triad.1995.BluRay.1080p.x265.10bit-MiniHD 5.82GB

版主小s 3月前 227

◎译 名 摇啊摇,摇到外婆桥 / Shanghai Triad

◎年 代 1995

◎产 地 中国大陆 / 法国

◎类 别 剧情 / 犯罪

◎语 言 汉语普通话

◎上映日期 1995-05(戛纳电影节) / 1995-11-08(法国)

◎IMDb链接 https://www.imdb.com/title/tt0115012/

◎豆瓣评分 7.4/10 (35462人评价)

◎豆瓣链接 https://movie.douban.com/subject/1292900/

◎片 长 108 分钟(加拿大)

◎导 演 张艺谋 Yimou Zhang (id:1054398)

◎编 剧 王斌 Bin Wang (id:1300385)

毕飞宇 Feiyu Bi (id:1316386)

◎演 员 巩俐 Li Gong (id:1035641)

李保田 Baotian Li (id:1038193)

李雪健 Xuejian Li (id:1274233)

孙淳 Chun Sun (id:1274640)

傅彪 Biao Fu (id:1030488)

陈述 Shu Chen (id:1315792)

刘江 Jiang Liu (id:1035221)

蒋宝英 Baoying Jiang (id:1349553)

王啸晓 Xiaoxiao Wang (id:1349552)

杨倩倩 Qianqian Yang (id:1349554)

高英 Ying Gao (id:1326688)

廉叔良 Lian Shuliang (id:1466334)

高维明 Weiming Gao (id:1358027)

郭浩 Hao Guo (id:1358026)

王亚楠 Yanan Wang (id:1275110)

朱丽叶·赛尔斯 Juliette Sales (id:1340095)

卓伍 Wu Zhuo (id:1406933)

朱永德 Yongde Zhu (id:1376309)

吴贻弓 Yigong Wu (id:1039218)

王伟 Wei Wang (id:1313929)

让-路易斯·皮尔 Jean-Louis Piel (id:1294501)

Yves Marmion Yves Marmion (id:1291047)

黎锦光 Jinguang Li (id:1369493)

张广天 Guangtian Zhang (id:1316148)

吕乐 Yue Lv (id:1274303)

杜媛 Yuan Du (id:1282754)

陈晓红 Xiaohong Chen (id:1396927)

曹久平 Juiping Cao (id:1280023)

秦锡泉 Xiquan Qin (id:1419952)

黄新明 Xinming Huang (id:1316674)

佟华苗 Huamiao Tong (id:1299381)

胡晓峰 Xiaofeng Hu (id:1385113)

张建民 Jianmin Zhang (id:1374778)

张震燕 Zhenyan Zhang (id:1385114)

杨晓丹 Xiaodan Yang (id:1333334)

严场圣 Changsheng Yan (id:1457553)

谢东燊 Dongshen Xie (id:1317475)

聂春申 Chunshen Nie (id:1396549)

陶经 Jing Tao (id:1298913)

钱守一 Shouyi Qian (id:1325504)

杨占山 Zhanshan Yang (id:1386011)

黄新明 Xinming Huang (id:1316674)

◎简 介

1930年代,乡村少年唐水生来到上海投靠六叔(李雪健),在他的引荐下,做了歌舞皇后小金宝(巩俐)的贴身佣人。小金宝是上海滩一霸唐老爷(李保田)的女人,但与其手下宋二爷有染,而宋二爷已经觊觎唐老爷的位子良久。

六叔的猝死使唐老爷心生警觉,带着小金宝、水生等人来到一个只有寡 妇翠花和她一双儿女在的小岛避难,并下令对上岛的生熟面孔格杀无论。小金宝在同翠花的相处中对生活有了另一番理解,渐渐对唐老爷的残忍非常不满,然而她的命运亦掌控在唐老爷手中。

◎获奖情况 (共4项)

第68届奥斯卡金像奖 (1996)

最佳摄影(提名)

└──吕乐 (id:1274303)

第48届戛纳电影节 (1995)

主竞赛单元 金棕榈奖(提名)

└──张艺谋 (id:1054398)

技术大奖

└──吕乐 (id:1274303)

第53届金球奖 (1996)

电影类 最佳外语片(提名)

  1. ##### MediaInfo ######

  2. General

  3. Unique ID : 172880882973223134562254786685542192710 (0x820FA59D6713013A955AA7C98585D646)

  4. Complete name : Shanghai.Triad.1995.BluRay.1080p.x265.10bit-MiniHD.mkv

  5. Format : Matroska

  6. Format version : Version 4

  7. File size : 5.82 GiB

  8. Duration : 1 h 47 min

  9. Overall bit rate : 7 735 kb/s

  10. Encoded date : UTC 2017-09-27 01:45:55

  11. Writing application : mkvmerge v11.0.0 ('Alive') 64bit

  12. Writing library : libebml v1.3.4 + libmatroska v1.4.5

  13. Video

  14. ID : 1

  15. Format : HEVC

  16. Format/Info : High Efficiency Video Coding

  17. Codec ID : V_MPEGH/ISO/HEVC

  18. Duration : 1 h 47 min

  19. Bit rate : 7 261 kb/s

  20. Width : 1 920 pixels

  21. Height : 1 032 pixels

  22. Display aspect ratio : 1.85:1

  23. Frame rate mode : Constant

  24. Frame rate : 24.000 FPS

  25. Bits/(Pixel*Frame) : 0.153

  26. Stream size : 5.46 GiB (94%)

  27. Default : Yes

  28. Forced : No

  29. Audio

  30. ID : 2

  31. Format : AC-3

  32. Format/Info : Audio Coding 3

  33. Commercial name : Dolby Digital

  34. Codec ID : A_AC3

  35. Duration : 1 h 47 min

  36. Bit rate mode : Constant

  37. Bit rate : 320 kb/s

  38. Channel(s) : 2 channels

  39. Channel layout : L R

  40. Sampling rate : 48.0 kHz

  41. Frame rate : 31.250 FPS (1536 SPF)

  42. Compression mode : Lossy

  43. Stream size : 246 MiB (4%)

  44. Language : Chinese

  45. Service kind : Complete Main

  46. Default : Yes

  47. Forced : No

  48. Text #1

  49. ID : 3

  50. Format : PGS

  51. Muxing mode : zlib

  52. Codec ID : S_HDMV/PGS

  53. Codec ID/Info : Picture based subtitle format used on BDs/HD-DVDs

  54. Language : Chinese

  55. Default : Yes

  56. Forced : No

  57. Text #2

  58. ID : 4

  59. Format : PGS

  60. Muxing mode : zlib

  61. Codec ID : S_HDMV/PGS

  62. Codec ID/Info : Picture based subtitle format used on BDs/HD-DVDs

  63. Language : English

  64. Default : No

  65. Forced : No

  66. Menu

  67. 00:00:00.000 : en:Chapter 01

  68. 00:09:02.708 : en:Chapter 02

  69. 00:18:06.208 : en:Chapter 03

  70. 00:28:09.791 : en:Chapter 04

  71. 00:36:51.375 : en:Chapter 05

  72. 00:46:04.291 : en:Chapter 06

  73. 00:53:46.208 : en:Chapter 07

  74. 01:02:47.583 : en:Chapter 08

  75. 01:11:31.375 : en:Chapter 09

  76. 01:21:51.458 : en:Chapter 10

  77. 01:28:20.583 : en:Chapter 11

  78. 01:37:46.541 : en:Chapter 12


复制代码


TAGS 剧情 犯罪 /

磁力链:
  • magnet:?xt=urn:btih:B3380581FC81687305DB73D59AC0ED675B983C04
上传的附件:
BT9527电影天堂 1、BT9527电影天堂提供的BT文件均来源于互联网抓取,只供网友学习交流、技术提升使用。
2、我们遵守BitTorrent点对点协议原则,任何版权问题请联系原资源发布商,我们不处理任何版权纠纷,谢谢!如有争议请联系邮箱:BT9527#hotmail.com(#换成@)
3、如果您发现某页面或地址有错误,请联系站长邮箱BT9527#hotmail.com(#换成@),我们会尽快处理。您的热心是对BT9527电影天堂最大的支持。
4、本站建议去正规影院观看电影以支持电影行业发展。
最新回复 (0)

你可以在 登录 or 注册 后,对此帖发表评论!

返回