换子疑云[国英多音轨/简繁英字幕].Changeling.2008.BluRay.1080p.x265.10bit.3Audio-MiniHD 5.61GB

版主小s 1月前 158

◎译 名 换子疑云 / 陌生的孩子(台) / 换命谎言(港) / 调包婴儿 / 换婴记 / 换亲子迷雾

◎片 名 Changeling

◎年 代 2008

◎产 地 美国

◎类 别 剧情 / 悬疑 / 惊悚

◎语 言 英语 / 葡萄牙语

◎上映日期 2008-10-31(美国)

◎IMDb链接 https://www.imdb.com/title/tt0824747/

◎豆瓣评分 8.4/10 (152968人评价)

◎豆瓣链接 https://movie.douban.com/subject/2028666/

◎片 长 141分钟

◎导 演 克林特·伊斯特伍德 Clint Eastwood (id:1054436)

◎编 剧 J·迈克尔·斯特拉辛斯基 J. Michael Straczynski (id:1009530)

◎演 员 安吉丽娜·朱莉 Angelina Jolie (id:1054447)

盖特林·格里菲斯 Gattlin Griffith (id:1315243)

米歇尔·冈 Michelle Gunn (id:1315244)

约翰·马尔科维奇 John Malkovich (id:1041013)

科鲁姆·费奥瑞 Colm Feore (id:1022706)

杰弗里·多诺万 Jeffrey Donovan (id:1044732)

迈克尔·凯利 Michael Kelly (id:1104615)

Morgan Eastwood Morgan Eastwood (id:1208249)

约翰·哈林顿·布兰德 John Harrington Bland (id:1062496)

戴尔·迪奇 Dale Dickey (id:1313800)

瑞琪·琳德赫姆 Riki Lindhome (id:1031927)

Jan Devereaux Jan Devereaux (id:1366482)

Erica Grant Erica Grant (id:1366483)

弗兰克·伍德 Frank Wood (id:1366484)

Kelly Lynn Warren Kelly Lynn Warren (id:1366486)

约翰·R·邓肯 John R. Duncan (id:1432768)

艾迪·阿尔德森 Eddie Alderson (id:1040873)

里德·伯尼 Reed Birney (id:1063931)

斯考特·拉瓦 Scott Leva (id:1289875)

杰森·巴特勒·哈纳 Jason Butler Harner (id:1027487)

艾米·莱安 Amy Ryan (id:1144124)

吉奥夫·皮尔森 Geoff Pierson (id:1135790)

丹尼斯·欧哈拉 Denis O'Hare (id:1013900)

彼得·格雷蒂 Peter Gerety (id:1097487)

大卫·皮尔 David Pearl (id:1432775)

罗伯特·洛伦兹 Robert Lorenz (id:1290324)

Tim Moore Tim Moore (id:1292424)

克林特·伊斯特伍德 Clint Eastwood (id:1054436)

莱尼·涅霍斯 Lennie Niehaus (id:1018772)

克林特·伊斯特伍德 Clint Eastwood (id:1054436)

加里·罗奇 Gary Roach (id:1295733)

乔尔·考克斯 Joel Cox (id:1281415)

杰弗里·麦克拉特 Geoffrey Miclat (id:1184145)

Ellen Chenoweth Ellen Chenoweth (id:1280600)

詹姆斯·J·默拉卡米 James J. Murakami (id:1292724)

加里·费迪斯 Gary Fettis (id:1283648)

Deborah Hopper Deborah Hopper (id:1286913)

Jay Wejebe Jay Wejebe (id:1300656)

Janis Clark Janis Clark (id:1280850)

卡罗尔·A·奥康奈尔 Carol A. O'Connell (id:1293382)

塔尼亚·麦克科马斯 Tania McComas (id:1291482)

托尼·G Toni G (id:1284361)

科林·贾米森 Colin Jamison (id:1287572)

Katie Carroll Katie Carroll (id:1280171)

Donald Murphy Donald Murphy (id:1292748)

迈克尔·欧文斯 Michael Owens (id:1293758)

Jinnie Pak Jinnie Pak (id:1293822)

Earl Paraszczynec Earl Paraszczynec (id:1293928)

Sean Stanek Sean Stanek (id:1298245)

丹尼斯·霍夫曼 Dennis Hoffman (id:1286766)

Laurent Ben-Mimoun Laurent Ben-Mimoun (id:1301846)

马克·弗伦德 Mark Freund (id:1284190)

Debora Dunphy Debora Dunphy (id:1282830)

Geoffrey Hancock Geoffrey Hancock (id:1302079)

Lee Allan Lee Allan (id:1311803)

Romain Bayle Romain Bayle (id:1310674)

Abel Milanes Abel Milanes (id:1310582)

罗恩·克拉布 Ron Crabb (id:1310401)

◎简 介

1928年美国洛杉矶,在电话局接线台工作的克莉斯汀?柯林斯(Angelina Jolie 安吉莉娜?朱丽 饰)独自抚养儿子沃特(Gattlin Griffith 加特林?格里菲斯 饰),母子的生活简单而幸福。然而她们的生活很快被打乱,某天当克莉斯汀下班后,发现儿子不见踪影。

在公众的舆论压力下,腐败的洛杉矶警方于5个月后找回沃特,但克莉斯汀发现这并非自己的亲生儿子。她三番五次要求警方澄清事实,帮其寻找真正的沃特,却一次次受到阻挠和指责,甚至以妨碍警方公务的罪名被送入精神病院。一向以揭露警方暴行为己任的牧师古斯塔夫?布里格拉伯(John Malkovich 约翰?马尔科维奇 饰),为了这个可怜女人的不幸遭遇奔走呼告。

另一方面,探员莱斯特(Michael Kelly 饰)在侦办一件偷渡案时,无意中发现了一起重大的连环儿童杀人案。少年沃特的失踪案似乎渐露...

◎获奖情况 (共8项)

第81届奥斯卡金像奖 (2009)

最佳女主角(提名)

└──安吉丽娜·朱莉 (id:1054447)

最佳摄影(提名)

└──汤姆·斯特恩 (id:1037117)

最佳艺术指导(提名)

第61届戛纳电影节 (2008)

主竞赛单元 金棕榈奖(提名)

└──克林特·伊斯特伍德 (id:1054436)

第66届金球奖 (2009)

电影类 剧情片最佳女主角(提名)

└──安吉丽娜·朱莉 (id:1054447)

电影类 最佳原创配乐(提名)

└──克林特·伊斯特伍德 (id:1054436)

第33届日本电影学院奖 (2010)

最佳外语片(提名)

第11届美国青少年选择奖 (2009)

最佳剧情片女演员(提名)

└──安吉丽娜·朱莉 (id:1054447)

  1. ##### MediaInfo ######

  2. General

  3. Unique ID : 241602040703908874297458922061718287298 (0xB5C2DC4886E0DE4584D2A96C6992F3C2)

  4. Complete name : Changeling.2008.BluRay.1080p.x265.10bit.3Audio-MiniHD.mkv

  5. Format : Matroska

  6. Format version : Version 4

  7. File size : 5.61 GiB

  8. Duration : 2 h 21 min

  9. Overall bit rate : 5 662 kb/s

  10. Encoded date : UTC 2017-11-05 14:52:30

  11. Writing application : mkvmerge v17.0.0 ('Be Ur Friend') 64-bit

  12. Writing library : libebml v1.3.5 + libmatroska v1.4.8

  13. Video

  14. ID : 1

  15. Format : HEVC

  16. Format/Info : High Efficiency Video Coding

  17. Codec ID : V_MPEGH/ISO/HEVC

  18. Duration : 2 h 21 min

  19. Bit rate : 4 309 kb/s

  20. Width : 1 920 pixels

  21. Height : 800 pixels

  22. Display aspect ratio : 2.40:1

  23. Frame rate mode : Constant

  24. Frame rate : 23.976 (24000/1001/53354) FPS

  25. Bits/(Pixel*Frame) : 0.117

  26. Stream size : 4.27 GiB (76%)

  27. Default : Yes

  28. Forced : No

  29. Audio #1

  30. ID : 2

  31. Format : AC-3

  32. Format/Info : Audio Coding 3

  33. Commercial name : Dolby Digital

  34. Codec ID : A_AC3

  35. Duration : 2 h 21 min

  36. Bit rate mode : Constant

  37. Bit rate : 640 kb/s

  38. Channel(s) : 6 channels

  39. Channel layout : L R C LFE Ls Rs

  40. Sampling rate : 48.0 kHz

  41. Frame rate : 31.250 FPS (1536 SPF)

  42. Compression mode : Lossy

  43. Stream size : 650 MiB (11%)

  44. Title : 英语原声

  45. Language : English

  46. Service kind : Complete Main

  47. Default : Yes

  48. Forced : No

  49. Audio #2

  50. ID : 3

  51. Format : AC-3

  52. Format/Info : Audio Coding 3

  53. Commercial name : Dolby Digital

  54. Codec ID : A_AC3

  55. Duration : 2 h 21 min

  56. Bit rate mode : Constant

  57. Bit rate : 224 kb/s

  58. Channel(s) : 2 channels

  59. Channel layout : L R

  60. Sampling rate : 48.0 kHz

  61. Frame rate : 31.250 FPS (1536 SPF)

  62. Compression mode : Lossy

  63. Stream size : 227 MiB (4%)

  64. Title : 上译国配

  65. Language : Chinese

  66. Service kind : Complete Main

  67. Default : No

  68. Forced : No

  69. Audio #3

  70. ID : 4

  71. Format : AC-3

  72. Format/Info : Audio Coding 3

  73. Commercial name : Dolby Digital

  74. Codec ID : A_AC3

  75. Duration : 2 h 21 min

  76. Bit rate mode : Constant

  77. Bit rate : 448 kb/s

  78. Channel(s) : 2 channels

  79. Channel layout : L R

  80. Sampling rate : 48.0 kHz

  81. Frame rate : 31.250 FPS (1536 SPF)

  82. Compression mode : Lossy

  83. Stream size : 455 MiB (8%)

  84. Title : 央视国配

  85. Language : Chinese

  86. Service kind : Complete Main

  87. Default : No

  88. Forced : No

  89. Text #1

  90. ID : 5

  91. Format : PGS

  92. Muxing mode : zlib

  93. Codec ID : S_HDMV/PGS

  94. Codec ID/Info : Picture based subtitle format used on BDs/HD-DVDs

  95. Duration : 2 h 14 min

  96. Bit rate : 49.3 kb/s

  97. Count of elements : 4297

  98. Stream size : 47.4 MiB (1%)

  99. Title : 英文

  100. Language : English

  101. Default : Yes

  102. Forced : No

  103. Text #2

  104. ID : 6

  105. Format : PGS

  106. Muxing mode : zlib

  107. Codec ID : S_HDMV/PGS

  108. Codec ID/Info : Picture based subtitle format used on BDs/HD-DVDs

  109. Duration : 2 h 20 min

  110. Bit rate : 25.4 kb/s

  111. Count of elements : 3564

  112. Stream size : 25.6 MiB (0%)

  113. Title : 台版BD原盘简中

  114. Language : Chinese

  115. Default : No

  116. Forced : No

  117. Text #3

  118. ID : 7

  119. Format : PGS

  120. Muxing mode : zlib

  121. Codec ID : S_HDMV/PGS

  122. Codec ID/Info : Picture based subtitle format used on BDs/HD-DVDs

  123. Duration : 2 h 20 min

  124. Bit rate : 27.1 kb/s

  125. Count of elements : 3565

  126. Stream size : 27.3 MiB (0%)

  127. Title : 台版BD原盘繁中

  128. Language : Chinese

  129. Default : No

  130. Forced : No

  131. Text #4

  132. ID : 8

  133. Format : UTF-8

  134. Codec ID : S_TEXT/UTF8

  135. Codec ID/Info : UTF-8 Plain Text

  136. Duration : 2 h 20 min

  137. Bit rate : 118 b/s

  138. Count of elements : 1900

  139. Stream size : 122 KiB (0%)

  140. Title : 简(原盘简体)英双语

  141. Language : Chinese

  142. Default : No

  143. Forced : No

  144. Menu

  145. 00:00:00.000 : en:Chapter 01

  146. 00:06:30.056 : en:Chapter 02

  147. 00:13:57.002 : en:Chapter 03

  148. 00:18:37.616 : en:Chapter 04

  149. 00:27:02.579 : en:Chapter 05

  150. 00:36:52.083 : en:Chapter 06

  151. 00:43:20.472 : en:Chapter 07

  152. 00:50:51.047 : en:Chapter 08

  153. 00:57:18.351 : en:Chapter 09

  154. 01:06:05.586 : en:Chapter 10

  155. 01:14:26.587 : en:Chapter 11

  156. 01:21:41.438 : en:Chapter 12

  157. 01:28:25.258 : en:Chapter 13

  158. 01:32:27.166 : en:Chapter 14

  159. 01:38:30.487 : en:Chapter 15

  160. 01:46:41.728 : en:Chapter 16

  161. 01:55:12.155 : en:Chapter 17

  162. 02:01:36.205 : en:Chapter 18

  163. 02:08:14.102 : en:Chapter 19

  164. 02:14:39.654 : en:Chapter 20


复制代码


TAGS 剧情 惊悚 悬疑 /

磁力链:
  • magnet:?xt=urn:btih:230C47822AE26CEAEA5CD60F44A038F7906A5948
上传的附件:
BT9527电影天堂 1、BT9527电影天堂提供的BT文件均来源于互联网抓取,只供网友学习交流、技术提升使用。
2、我们遵守BitTorrent点对点协议原则,任何版权问题请联系原资源发布商,我们不处理任何版权纠纷,谢谢!如有争议请联系邮箱:BT9527#hotmail.com(#换成@)
3、如果您发现某页面或地址有错误,请联系站长邮箱BT9527#hotmail.com(#换成@),我们会尽快处理。您的热心是对BT9527电影天堂最大的支持。
4、本站建议去正规影院观看电影以支持电影行业发展。
最新回复 (0)

你可以在 登录 or 注册 后,对此帖发表评论!

返回
发新帖