捅马蜂窝的女孩[共2部合集][中英字幕].The.Girl.Who.Kicked.the.Hornets.Nest.2009.Extended.BluRay.1080p.x265.10bit-MiniHD 15.48GB

版主小s 1月前 247



◎译  名 捅马蜂窝的女孩 / 直捣蜂窝的女孩(港) / The Girl Who Kicked the Hornet's Nest
◎片  名 Luftslottet som spr?ngdes
◎年  代 2009
◎产  地 瑞典 / 丹麦 / 德国
◎类  别 剧情 / 惊悚 / 犯罪
◎语  言 瑞典语
◎上映日期 2009-11-27(瑞典)
◎IMDb链接 https://www.imdb.com/title/tt1343097/
◎豆瓣评分 7.1/10 (4690人评价)
◎豆瓣链接 https://movie.douban.com/subject/3750748/
◎片  长 147分钟
◎导  演 丹尼尔·阿尔弗雷德森 Daniel Alfredson (id:1018252)
◎编  剧 斯蒂格·拉赫松 Stieg Larsson (id:1022719)
       乌尔夫·吕贝里 Ulf Ryberg (id:1296393)
◎演  员 迈克尔·恩奎斯特 Michael Nyqvist (id:1041155)
       劳米·拉佩斯 Noomi Rapace (id:1013796)
       桑纳·克瑞普 Sanna Krepper (id:1133860)
       Jacob Nordenson Jacob Nordenson (id:1135829)
       Georgi Staykov Georgi Staykov (id:1151902)
       Mirja Turestedt Mirja Turestedt (id:1183011)
       Carl-?ke Eriksson Carl-?ke Eriksson (id:1079171)
       索菲亚·德拉普 Sofia Ledarp (id:1183756)
        Tanja Lorentzon (id:1225917)
        Kerstin Green (id:1250502)
       特希拉·布拉德 Tehilla Blad (id:1255630)
        Tina Berg (id:1271819)
       阿格尼丝·基特尔森 Agnes Kittelsen (id:1308652)
       马格努斯·克雷佩 Magnus Krepper (id:1109069)
       Donald H?gberg Donald H?gberg (id:1107353)
       米凯利斯·库佐吉亚纳基斯 Michalis Koutsogiannakis (id:1102767)
       帕尔·奥斯卡森 Per Oscarsson (id:1007212)
       莱娜·恩卓 Lena Endre (id:1009453)
       汉斯·阿尔弗莱德森 Hans Alfredson (id:1012610)
       雅各布·埃里克松 Jacob Ericksson (id:1014481)
       Henrik Sj?man Henrik Sj?man (id:1048677)
       彼得·安德森 Peter Andersson (id:1056229)
       Anders Ahlbom Anders Ahlbom (id:1059954)
       Rolf Degerlund Rolf Degerlund (id:1079749)
       尼克拉斯·福尔克 Niklas Falk (id:1081665)
       Jan Holmquist Jan Holmquist (id:1095333)
       Aida Gordon Aida Gordon (id:1096687)
       Niklas Hjulstr?m Niklas Hjulstr?m (id:1097452)
       伦纳特·胡尔斯特罗姆 Lennart Hjulstr?m (id:1102086)
       安妮卡·哈林 Annika Hallin (id:1005109)
       S?ren St?rmose S?ren St?rmose (id:1000129)
       Jon Mankell Jon Mankell (id:1030095)
       Klaus Bassiner Klaus Bassiner (id:1278058)
       贡纳尔·卡尔松 Gunnar Carlsson (id:1017270)
       Jacob Groth Jacob Groth (id:1285546)
       彼德·莫克罗辛斯基 Peter Mokrosinski (id:1292305)
       Tusse Lande Tusse Lande (id:1110328)
       洛维·拉森 Love Larson (id:1207898)

◎简  介
  上一集惨绝人寰的父子三人残杀,让丽莎贝丝·萨兰德(劳米·拉佩斯 Noomi Rapace 饰)头部中弹,几乎丧命,亚历山大·扎拉千科(Georgi Staykov 饰)惨遭斧劈,身负重伤。父女二人一同住在哥德堡的萨尔格医院,隆德曼·尼埃德曼(Micke Spreitz 饰)则持续逃亡。由于亚历山大是30年前从苏联军情局投诚瑞典的情报人员,其敏感身份让政府颇多顾忌,而丽莎贝丝背后隐藏的政治黑幕又令政客们焦虑不安。不久,亚历山大被瑞典安全局派出的刺客杀害,丽莎贝丝则面临多项谋杀罪名的指控。为了拯救丽莎贝丝,并揭露政府黑幕,千禧年杂志记者米克·布卢姆科斯特(Michael Nyqvist 饰)奔忙取证。然调查越深,危险越大……                                    
                                本片根据瑞典小说家斯蒂格·拉尔松(Stieg Larsson)的原著改编,是“千禧年三部曲”的最后一部。



  1. 合集文件列表:

  2. 1.The.Girl.Who.Kicked.the.Hornet's.Nest.Part.I.2009.Extended.BluRay.1080p.x265.10bit-MiniHD.mkv 8.04GB

  3. 2.The.Girl.Who.Kicked.the.Hornet's.Nest.Part.II.2009.Extended.BluRay.1080p.x265.10bit-MiniHD.mkv 7.43GB

复制代码





  1. ##### MediaInfo ######
  2. General
  3. Unique ID                                : 194997650887111993709684772934479952404 (0x92B32E765102BD45B3773457610EBA14)
  4. Complete name                            : The.Girl.Who.Kicked.the.Hornet's.Nest.Part.I.2009.Extended.BluRay.1080p.x265.10bit-MiniHD.mkv
  5. Format                                   : Matroska
  6. Format version                           : Version 4
  7. File size                                : 8.04 GiB
  8. Duration                                 : 1 h 32 min
  9. Overall bit rate                         : 12.5 Mb/s
  10. Encoded date                             : UTC 2017-09-24 12:20:35
  11. Writing application                      : mkvmerge v11.0.0 ('Alive') 64bit
  12. Writing library                          : libebml v1.3.4 + libmatroska v1.4.5
  13. Video
  14. ID                                       : 1
  15. Format                                   : HEVC
  16. Format/Info                              : High Efficiency Video Coding
  17. Codec ID                                 : V_MPEGH/ISO/HEVC
  18. Duration                                 : 1 h 32 min
  19. Bit rate                                 : 11.8 Mb/s
  20. Width                                    : 1 920 pixels
  21. Height                                   : 1 080 pixels
  22. Display aspect ratio                     : 16:9
  23. Frame rate mode                          : Constant
  24. Frame rate                               : 23.976 (24000/1001/53354) FPS
  25. Bits/(Pixel*Frame)                       : 0.237
  26. Stream size                              : 7.60 GiB (94%)
  27. Default                                  : Yes
  28. Forced                                   : No
  29. Audio
  30. ID                                       : 2
  31. Format                                   : AC-3
  32. Format/Info                              : Audio Coding 3
  33. Commercial name                          : Dolby Digital
  34. Codec ID                                 : A_AC3
  35. Duration                                 : 1 h 32 min
  36. Bit rate mode                            : Constant
  37. Bit rate                                 : 448 kb/s
  38. Channel(s)                               : 6 channels
  39. Channel layout                           : L R C LFE Ls Rs
  40. Sampling rate                            : 48.0 kHz
  41. Frame rate                               : 31.250 FPS (1536 SPF)
  42. Compression mode                         : Lossy
  43. Stream size                              : 296 MiB (4%)
  44. Language                                 : Swedish
  45. Service kind                             : Complete Main
  46. Default                                  : Yes
  47. Forced                                   : No
  48. Text #1
  49. ID                                       : 3
  50. Format                                   : PGS
  51. Muxing mode                              : zlib
  52. Codec ID                                 : S_HDMV/PGS
  53. Codec ID/Info                            : Picture based subtitle format used on BDs/HD-DVDs
  54. Language                                 : English
  55. Default                                  : Yes
  56. Forced                                   : No
  57. Text #2
  58. ID                                       : 4
  59. Format                                   : PGS
  60. Muxing mode                              : zlib
  61. Codec ID                                 : S_HDMV/PGS
  62. Codec ID/Info                            : Picture based subtitle format used on BDs/HD-DVDs
  63. Language                                 : Chinese
  64. Default                                  : No
  65. Forced                                   : No
  66. Text #3
  67. ID                                       : 5
  68. Format                                   : PGS
  69. Muxing mode                              : zlib
  70. Codec ID                                 : S_HDMV/PGS
  71. Codec ID/Info                            : Picture based subtitle format used on BDs/HD-DVDs
  72. Language                                 : Chinese
  73. Default                                  : No
  74. Forced                                   : No
  75. Menu
  76. 00:00:00.000                             : en:Chapter 01
  77. 00:07:46.090                             : en:Chapter 02
  78. 00:14:28.951                             : en:Chapter 03
  79. 00:21:36.420                             : en:Chapter 04
  80. 00:31:35.560                             : en:Chapter 05
  81. 00:39:53.224                             : en:Chapter 06
  82. 00:50:19.641                             : en:Chapter 07
  83. 00:56:07.030                             : en:Chapter 08
  84. 01:04:20.982                             : en:Chapter 09
  85. 01:11:53.767                             : en:Chapter 10
  86. 01:20:02.923                             : en:Chapter 11
  87. 01:28:33.933                             : en:Chapter 12
复制代码




TAGS 剧情 惊悚 犯罪 /

磁力链:
  • magnet:?xt=urn:btih:58A14892820D8744E892F4CF9D15F4220670F103
上传的附件:
BT9527电影天堂 1、BT9527电影天堂提供的BT文件均来源于互联网抓取,只供网友学习交流、技术提升使用。
2、我们遵守BitTorrent点对点协议原则,任何版权问题请联系原资源发布商,我们不处理任何版权纠纷,谢谢!如有争议请联系邮箱:BT9527#hotmail.com(#换成@)
3、如果您发现某页面或地址有错误,请联系站长邮箱BT9527#hotmail.com(#换成@),我们会尽快处理。您的热心是对BT9527电影天堂最大的支持。
4、本站建议去正规影院观看电影以支持电影行业发展。
最新回复 (0)

你可以在 登录 or 注册 后,对此帖发表评论!

返回
发新帖