战马[国英多音轨/中英字幕].War.Horse.2011.BluRay.1080p.x265.10bit.2Audio-MiniHD 6.78GB

版主小s 1月前 152

◎译 名 战马 / 雷霆战驹(港)

◎片 名 War Horse

◎年 代 2011

◎产 地 美国

◎类 别 剧情 / 战争

◎语 言 英语 / 德语

◎上映日期 2012-02-28(中国大陆) / 2011-12-25(美国)

◎IMDb链接 https://www.imdb.com/title/tt1568911/

◎豆瓣评分 8.2/10 (219692人评价)

◎豆瓣链接 https://movie.douban.com/subject/4206436/

◎片 长 146分钟

◎导 演 史蒂文·斯皮尔伯格 Steven Spielberg (id:1054440)

◎编 剧 李·哈尔 Lee Hall (id:1285850)

理查德·柯蒂斯 Richard Curtis (id:1040673)

◎演 员 杰瑞米·艾文 Jeremy Irvine (id:1316109)

彼得·穆兰 Peter Mullan (id:1041201)

艾米丽·沃森 Emily Watson (id:1013814)

本尼迪克特·康伯巴奇 Benedict Cumberbatch (id:1009405)

汤姆·希德勒斯顿 Tom Hiddleston (id:1004596)

大卫·休里斯 David Thewlis (id:1031862)

尼尔斯·阿贺斯图普 Niels Arestrup (id:1007145)

席琳·邦金斯 Celine Buckens (id:1317447)

大卫·克劳斯 David Kross (id:1040984)

托比·凯贝尔 Toby Kebbell (id:1010533)

帕特里克·肯尼迪 Patrick Kennedy (id:1206488)

迈克尔·寇特斯 Michael Koltes (id:1371165)

皮普·托伦斯 Pip Torrens (id:1336328)

托尼·皮茨 Tony Pitts (id:1137094)

杰拉德·迈克索利 Gerard McSorley (id:1291722)

利亚姆·坎宁安 Liam Cunningham (id:1018077)

菲利普·纳翁 Philippe Nahon (id:1016792)

朱利安·沃德姆 Julian Wadham (id:1160970)

约翰尼·哈里斯 Johnny Harris (id:1314880)

张磊 Lei Zhang (id:1340809)

陆建艺 Jianyi Lu (id:1334341)

帕特·拉法恩 Pat Laffan (id:1420322)

克里斯托弗·沃勒斯 Christopher Vowles (id:1423513)

杰夫·贝尔 Geoff Bell (id:1321777)

尼可拉斯·布若 Nicolas Bro (id:1032497)

马特·米尔尼 Matt Milne (id:1320495)

大卫·丹席克 David Dencik (id:1276058)

斯蒂芬·格拉汉姆 Stephen Graham (id:1025229)

埃迪·马森 Eddie Marsan (id:1291072)

马古斯·汤姆齐克 Markus Tomczyk (id:1341038)

赖纳·博克 Rainer Bock (id:1278861)

汉勒斯·魏格纳 Hannes Wegener (id:1340775)

罗伯特·埃姆斯 Robert Emms (id:1268975)

李奥那多·卡劳 Leonhard Carow (id:1203303)

凯瑟琳·肯尼迪 Kathleen Kennedy (id:1019168)

史蒂文·斯皮尔伯格 Steven Spielberg (id:1054440)

约翰·威廉姆斯 John Williams (id:1054692)

雅努什·卡明斯基 Janusz Kaminski (id:1009475)

吉娜·杰 Jina Jay (id:1395105)

李·桑多斯 Lee Sandales (id:1324868)

瑞克·卡特 Rick Carter (id:1280172)

◎简 介

1914年,在德文郡小镇,男孩艾尔伯特(杰瑞米·艾文 Jeremy Irvine 饰)目睹了幼驹乔伊的诞生。在集市上,它被频繁叫价,最终被艾尔伯特的父亲泰德(彼得·穆兰 Peter Mullan 饰)用30几尼的天价收入囊中,跛脚的他也因此得罪了地主。艾尔伯特与乔伊尽情 嬉戏,与朋友分享。然而,好景不长,地主登门拜访,称如果乔伊不能犁地将立刻将其带走,于是泰德赌上了全部家当。于是,艾尔伯特在逼迫之下,为乔伊套上了鞍蹬,强迫它犁地,甚至还使用了皮鞭,却不能让它屈服就范。为了还债,泰德亲自上阵犁地,功夫不负有心人,辛苦换来了收成,但是一场大雨毁了一切。德军来袭,父亲被迫将马变卖给骑兵军,换了30几尼。艾尔伯特虽然难以割舍也只能含泪送别乔伊踏上了前途未卜的战场。战争中,乔伊的主人不停在变,从英国上尉,法国老农与孙女,到德国骑兵,然而它真正等待的是艾尔伯特,...

◎获奖情况 (共21项)

第84届奥斯卡金像奖 (2012)

最佳影片(提名)

最佳摄影(提名)

└──雅努什·卡明斯基 (id:1009475)

最佳混音(提名)

最佳音效剪辑(提名)

最佳艺术指导(提名)

最佳原创配乐(提名)

└──约翰·威廉姆斯 (id:1054692)

第69届金球奖 (2012)

电影类 最佳剧情片(提名)

电影类 最佳原创配乐(提名)

└──约翰·威廉姆斯 (id:1054692)

第17届美国评论家选择电影奖 (2012)

最佳影片(提名)

最佳导演(提名)

└──史蒂文·斯皮尔伯格 (id:1054440)

最佳摄影

└──雅努什·卡明斯基 (id:1009475)

最佳剪辑(提名)

└──迈克尔·卡恩 (id:1037019)

最佳配乐(提名)

└──约翰·威廉姆斯 (id:1054692)

最佳美术指导(提名)

最佳音效(提名)

第12届美国电影学会奖 (2011)

年度佳片

第10届华盛顿影评人协会奖 (2011)

最佳摄影(提名)

└──雅努什·卡明斯基 (id:1009475)

最佳配乐(提名)

└──约翰·威廉姆斯 (id:1054692)

最佳艺术指导(提名)

第24届芝加哥影评人协会奖 (2011)

最佳摄影(提名)

└──雅努什·卡明斯基 (id:1009475)

第20届东南影评人协会奖 (2011)

十大佳片

  1. ##### MediaInfo ######

  2. General

  3. Unique ID : 238001287066790318994040136235772359706 (0xB30D616C25FC996E9DAD43967EDD341A)

  4. Complete name : War.Horse.2011.BluRay.1080p.x265.10bit.2Audio-MiniHD.mkv

  5. Format : Matroska

  6. Format version : Version 4

  7. File size : 6.78 GiB

  8. Duration : 2 h 26 min

  9. Overall bit rate : 6 614 kb/s

  10. Encoded date : UTC 2017-04-19 05:41:55

  11. Writing application : mkvmerge v9.7.1 ('Pandemonium') 64bit

  12. Writing library : libebml v1.3.4 + libmatroska v1.4.5

  13. Video

  14. ID : 1

  15. Format : HEVC

  16. Format/Info : High Efficiency Video Coding

  17. Format profile : Main 10@L4@Main

  18. Codec ID : V_MPEGH/ISO/HEVC

  19. Duration : 2 h 26 min

  20. Bit rate : 5 458 kb/s

  21. Width : 1 920 pixels

  22. Height : 800 pixels

  23. Display aspect ratio : 2.40:1

  24. Frame rate mode : Constant

  25. Frame rate : 23.976 (24000/1001/53354) FPS

  26. Color space : YUV

  27. Chroma subsampling : 4:2:0

  28. Bit depth : 10 bits

  29. Bits/(Pixel*Frame) : 0.148

  30. Stream size : 5.59 GiB (83%)

  31. Writing library : x265 2.3+24-a0eee4b41185:[Windows][GCC 6.3.0][64 bit] 10bit

  32. Encoding settings : cpuid=533541173503 / frame-threads=6 / numa-pools=36 / wpp / no-pmode / no-pme / no-psnr / no-ssim / log-level=2 / input-csp=1 / input-res=1920x800 / interlace=0 / total-frames=210985 / level-idc=0 / high-tier=1 / uhd-bd=0 / ref=5 / no-allow-non-conformance / no-repeat-headers / annexb / no-aud / no-hrd / info / hash=0 / no-temporal-layers / no-open-gop / min-keyint=1 / keyint=360 / bframes=8 / b-adapt=2 / b-pyramid / bframe-bias=0 / rc-lookahead=60 / lookahead-slices=4 / NTMzNTQ=uuDQuD2mJt9fsCf / scenecut=40 / no-intra-refresh / ctu=32 / min-cu-size=8 / rect / no-amp / max-tu-size=16 / tu-inter-depth=2 / tu-intra-depth=2 / limit-tu=4 / rdoq-level=2 / dynamic-rd=0.00 / signhide / no-tskip / nr-intra=0 / nr-inter=0 / no-constrained-intra / no-strong-intra-smoothing / max-merge=3 / limit-refs=1 / limit-modes / me=3 / subme=5 / merange=25 / temporal-mvp / weightp / weightb / no-analyze-src-pics / deblock=-1:-1 / no-sao / no-sao-non-deblock / rd=4 / no-early-skip / rskip / no-fast-intra / no-tskip-fast / no-cu-lossless / b-intra / rdpenalty=1 / psy-rd=0.00 / psy-rdoq=5.00 / no-rd-refine / analysis-mode=0 / no-lossless / cbqpoffs=-2 / crqpoffs=-2 / rc=crf / crf=19.0 / qcomp=0.70 / qpstep=4 / stats-write=0 / stats-read=0 / ipratio=1.40 / pbratio=1.30 / aq-mode=2 / aq-strength=0.80 / cutree / zone-count=0 / no-strict-cbr / qg-size=16 / no-rc-grain / qpmax=69 / qpmin=0 / sar=0 / overscan=0 / videoformat=5 / range=0 / colorprim=1 / transfer=2 / colormatrix=2 / chromaloc=0 / display-window=0 / max-cll=0,0 / min-luma=0 / max-luma=1023 / log2-max-poc-lsb=8 / vui-timing-info / vui-hrd-info / slices=1 / opt-qp-pps / opt-ref-list-length-pps / no-multi-pass-opt-rps / scenecut-bias=0.05 / no-opt-cu-delta-qp / no-aq-motion / no-hdr / no-hdr-opt / refine-level=5

  33. Default : Yes

  34. Forced : No

  35. Color range : Limited

  36. Color primaries : BT.709

  37. Audio #1

  38. ID : 2

  39. Format : AC-3

  40. Format/Info : Audio Coding 3

  41. Commercial name : Dolby Digital

  42. Codec ID : A_AC3

  43. Duration : 2 h 26 min

  44. Bit rate mode : Constant

  45. Bit rate : 640 kb/s

  46. Channel(s) : 6 channels

  47. Channel layout : L R C LFE Ls Rs

  48. Sampling rate : 48.0 kHz

  49. Frame rate : 31.250 FPS (1536 SPF)

  50. Compression mode : Lossy

  51. Stream size : 671 MiB (10%)

  52. Language : English

  53. Service kind : Complete Main

  54. Default : Yes

  55. Forced : No

  56. Audio #2

  57. ID : 3

  58. Format : AC-3

  59. Format/Info : Audio Coding 3

  60. Commercial name : Dolby Digital

  61. Codec ID : A_AC3

  62. Duration : 2 h 26 min

  63. Bit rate mode : Constant

  64. Bit rate : 384 kb/s

  65. Channel(s) : 6 channels

  66. Channel layout : L R C LFE Ls Rs

  67. Sampling rate : 48.0 kHz

  68. Frame rate : 31.250 FPS (1536 SPF)

  69. Compression mode : Lossy

  70. Stream size : 403 MiB (6%)

  71. Language : Chinese

  72. Service kind : Complete Main

  73. Default : No

  74. Forced : No

  75. Text #1

  76. ID : 4

  77. Format : PGS

  78. Muxing mode : zlib

  79. Codec ID : S_HDMV/PGS

  80. Codec ID/Info : Picture based subtitle format used on BDs/HD-DVDs

  81. Language : English

  82. Default : Yes

  83. Forced : No

  84. Text #2

  85. ID : 5

  86. Format : PGS

  87. Muxing mode : zlib

  88. Codec ID : S_HDMV/PGS

  89. Codec ID/Info : Picture based subtitle format used on BDs/HD-DVDs

  90. Language : Chinese

  91. Default : No

  92. Forced : No

  93. Text #3

  94. ID : 6

  95. Format : PGS

  96. Muxing mode : zlib

  97. Codec ID : S_HDMV/PGS

  98. Codec ID/Info : Picture based subtitle format used on BDs/HD-DVDs

  99. Language : Chinese

  100. Default : No

  101. Forced : No

  102. Menu

  103. 00:00:00.000 : en:Chapter 01

  104. 00:04:31.104 : en:Chapter 02

  105. 00:09:31.320 : en:Chapter 03

  106. 00:13:57.002 : en:Chapter 04

  107. 00:17:45.230 : en:Chapter 05

  108. 00:22:29.097 : en:Chapter 06

  109. 00:29:16.963 : en:Chapter 07

  110. 00:34:17.180 : en:Chapter 08

  111. 00:37:49.934 : en:Chapter 09

  112. 00:41:30.196 : en:Chapter 10

  113. 00:47:19.002 : en:Chapter 11

  114. 00:51:48.814 : en:Chapter 12

  115. 00:56:03.151 : en:Chapter 13

  116. 01:01:19.175 : en:Chapter 14

  117. 01:04:04.048 : en:Chapter 15

  118. 01:05:51.030 : en:Chapter 16

  119. 01:14:04.565 : en:Chapter 17

  120. 01:18:01.009 : en:Chapter 18

  121. 01:25:34.379 : en:Chapter 19

  122. 01:29:48.007 : en:Chapter 20

  123. 01:35:29.682 : en:Chapter 21

  124. 01:45:23.275 : en:Chapter 22

  125. 01:51:06.660 : en:Chapter 23

  126. 02:00:06.157 : en:Chapter 24

  127. 02:07:38.275 : en:Chapter 25

  128. 02:15:12.270 : en:Chapter 26

  129. 02:18:10.949 : en:Chapter 27


复制代码


TAGS 剧情 战争 /

磁力链:
  • magnet:?xt=urn:btih:B6067750DF414B1F0C64730383160E03B524C630
上传的附件:
BT9527电影天堂 1、BT9527电影天堂提供的BT文件均来源于互联网抓取,只供网友学习交流、技术提升使用。
2、我们遵守BitTorrent点对点协议原则,任何版权问题请联系原资源发布商,我们不处理任何版权纠纷,谢谢!如有争议请联系邮箱:BT9527#hotmail.com(#换成@)
3、如果您发现某页面或地址有错误,请联系站长邮箱BT9527#hotmail.com(#换成@),我们会尽快处理。您的热心是对BT9527电影天堂最大的支持。
4、本站建议去正规影院观看电影以支持电影行业发展。
最新回复 (0)

你可以在 登录 or 注册 后,对此帖发表评论!

返回
发新帖