愤怒的葡萄[中英字幕].The.Grapes.of.Wrath.1940.BluRay.1080p.x265.10bit-MiniHD 6.67GB

版主小s 3月前 257

◎译 名 愤怒的葡萄 / 怒火之花 / 愤怒的葡萄园

◎片 名 The Grapes of Wrath

◎年 代 1940

◎产 地 美国

◎类 别 剧情 / 历史

◎语 言 英语

◎上映日期 1940-03-15

◎IMDb链接 https://www.imdb.com/title/tt0032551/

◎豆瓣评分 8.5/10 (9330人评价)

◎豆瓣链接 https://movie.douban.com/subject/1292465/

◎片 长 128 分钟

◎导 演 约翰·福特 John Ford (id:1007035)

◎编 剧 纽纳利·约翰逊 Nunnally Johnson (id:1037225)

约翰·斯坦贝克 John Steinbeck (id:1032407)

◎演 员 亨利·方达 Henry Fonda (id:1048150)

简·达威尔 Jane Darwell (id:1027976)

约翰·卡拉丁 John Carradine (id:1054224)

查利· 格雷普韦恩 Charley Grapewin (id:1096293)

多里丝·鲍登 Dorris Bowdon (id:1070121)

拉塞尔·辛普森 Russell Simpson (id:1154857)

O·Z·怀特黑德 O.Z. Whitehead (id:1168210)

约翰奎尔伦 John Qualen (id:1142854)

埃迪·基扬 Eddie Quillan (id:1138365)

泽菲·蒂尔伯里 Zeffie Tilbury (id:1156742)

弗兰克·萨利 Frank Sully (id:1156162)

弗兰克·达里恩 Frank Darien (id:1087033)

达里尔·希克曼 Darryl Hickman (id:1100713)

雪莉·米尔斯 Shirley Mills (id:1115426)

罗杰·英霍夫 Roger Imhof (id:1111137)

格兰特·米切尔 Grant Mitchell (id:1115018)

查尔斯·D·布朗 Charles D. Brown (id:1071876)

约翰·阿利奇 John Arledge (id:1058129)

沃德·邦德 Ward Bond (id:1002795)

哈利泰勒 Harry Tyler (id:1149063)

威廉·波利 William Pawley (id:1081588)

查尔斯·坦嫩 Charles Tannen (id:1028757)

塞尔默杰克逊 Selmer Jackson (id:1104629)

查尔斯·米德尔顿 Charles Middleton (id:1121742)

埃迪·沃勒 Eddy Waller (id:1167334)

保罗·吉尔福伊尔 Paul Guilfoyle (id:1055391)

克利夫·克拉克 Cliff Clark (id:1067838)

乔·索耶 Joe Sawyer (id:1148208)

弗兰克·费伦 Frank Faylen (id:1036889)

阿德里安·莫里斯 Adrian Morris (id:1130212)

霍利斯·朱厄尔 Hollis Jewell (id:1102638)

罗伯特·霍曼斯 Robert Homans (id:1101019)

欧文·培根 Irving Bacon (id:1058430)

姬蒂·麦克休 Kitty McHugh (id:1124511)

沃利·奥尔布莱特 Wally Albright (id:1058995)

埃尔维利·阿尔德森 Erville Alderson (id:1060673)

罗伯特·J·安德森 Robert J. Anderson (id:1032827)

弗兰克·阿特金森 Frank Atkinson (id:1060021)

亚瑟·埃尔斯沃斯 Arthur Aylesworth (id:1060837)

特雷弗·巴德特 Trevor Bardette (id:1062871)

约翰·宾斯 John Binns (id:1065407)

乔·波尔多 Joe Bordeaux (id:1064750)

乔治·P·布雷克斯顿 George P. Breakston (id:1006066)

巴斯特·布罗迪 Buster Brodie (id:1068614)

特克斯·库珀 Tex Cooper (id:1075755)

哈利·考丁 Harry Cording (id:1070478)

吉姆·科里 Jim Corey (id:1078766)

基诺科拉多 Gino Corrado (id:1074733)

德尔马·科斯特洛 Delmar Costello (id:1072084)

简·克劳利 Jane Crowley (id:1070222)

约翰·迪尔森 John Dilson (id:1085071)

拉尔夫·邓恩 Ralph Dunn (id:1084774)

桑顿·爱德华兹 Thornton Edwards (id:1081188)

帕特·弗莱厄蒂 Pat Flaherty (id:1082331)

詹姆斯·弗莱文 James Flavin (id:1079423)

弗朗西斯·福特 Francis Ford (id:1022606)

Emily Gerdes Emily Gerdes (id:1097762)

William Gillis William Gillis (id:1093270)

Barney Gilmore Barney Gilmore (id:1091072)

William Haade William Haade (id:1091900)

Ben Hall Ben Hall (id:1096329)

Edna Hall Edna Hall (id:1099499)

Cliff Herbert Cliff Herbert (id:1091504)

Charles Herzinger Charles Herzinger (id:1091508)

Herbert Heywood Herbert Heywood (id:1102376)

Harry Holden Harry Holden (id:1094872)

David Kirkland David Kirkland (id:1105025)

雷克斯·利斯 Rex Lease (id:1054229)

梅·马什 Mae Marsh (id:1041421)

Louis Mason Louis Mason (id:1123802)

Scotty Mattraw Scotty Mattraw (id:1121665)

沃尔特·麦克格莱尔 Walter McGrail (id:1119170)

Jules Michelson Jules Michelson (id:1119947)

Walter Miller Walter Miller (id:1125270)

Philip Morris Philip Morris (id:1008167)

Richard Neill Richard Neill (id:1043113)

Frank Newburg Frank Newburg (id:1134643)

格雷格·托兰德 Gregg Toland (id:1018544)

罗伯特·L·辛普森 Robert L. Simpson (id:1297687)

马克-李·柯克 Mark-Lee Kirk (id:1288629)

格温·维克林 Gwen Wakeling (id:1033748)

◎简 介

刚从监狱释放出来的Tom Joad (亨利·方达 Henry Fonda饰)回到俄克拉荷马的家的时候却发现原来的家里已经空无一人,打听之下才从农民Jim Casy(约翰·卡拉丁 John Carradine饰)口中得知,随着工业的发展,当地的农民们都被迫离开该地。Tom和Jim在Tom的叔父家里找到了Tom的家人,一家人决定到加利福尼亚去寻找新的工作。一家人把所有的行李都放在一辆卡车上便出发了。路上,Tom的祖母去世了。他们发现了一个地方,专门召集像他们这样的人在那里工作,他们在那里安顿了下来。然而Jim却意外死亡,Tom为了给他报仇也杀了人,只能匆匆逃亡。一家人只能离开,去寻找下一个安身的地方,无家可归的农民们到底路在何方.....

本片改编自斯坦贝克的同名小说,获1941年奥斯卡最佳导演奖。

◎获奖情况 (共7项)

第13届奥斯卡金像奖 (1941)

最佳影片(提名)

最佳导演

└──约翰·福特 (id:1007035)

最佳男主角(提名)

└──亨利·方达 (id:1048150)

最佳女配角

└──简·达威尔 (id:1027976)

最佳编剧(提名)

└──纽纳利·约翰逊 (id:1037225)

最佳剪辑(提名)

└──罗伯特·L·辛普森 (id:1297687)

最佳录音(提名)

└──埃德蒙德·H·汉森 (id:1099878)

  1. ##### MediaInfo ######

  2. General

  3. Unique ID : 185840529676449326092641690346450257503 (0x8BCF95877A2078B8B07D0A8C4CA7065F)

  4. Complete name : The.Grapes.of.Wrath.1940.BluRay.1080p.x265.10bit-MiniHD.mkv

  5. Format : Matroska

  6. Format version : Version 4

  7. File size : 6.67 GiB

  8. Duration : 2 h 9 min

  9. Overall bit rate : 7 362 kb/s

  10. Encoded date : UTC 2017-08-21 11:25:31

  11. Writing application : mkvmerge v11.0.0 ('Alive') 64bit

  12. Writing library : libebml v1.3.4 + libmatroska v1.4.5

  13. Video

  14. ID : 1

  15. Format : HEVC

  16. Format/Info : High Efficiency Video Coding

  17. Codec ID : V_MPEGH/ISO/HEVC

  18. Duration : 2 h 9 min

  19. Bit rate : 6 963 kb/s

  20. Width : 1 436 pixels

  21. Height : 1 080 pixels

  22. Display aspect ratio : 4:3

  23. Frame rate mode : Constant

  24. Frame rate : 23.976 (24000/1001/53354) FPS

  25. Bits/(Pixel*Frame) : 0.187

  26. Stream size : 6.31 GiB (95%)

  27. Default : Yes

  28. Forced : No

  29. Audio

  30. ID : 2

  31. Format : AC-3

  32. Format/Info : Audio Coding 3

  33. Commercial name : Dolby Digital

  34. Codec ID : A_AC3

  35. Duration : 2 h 9 min

  36. Bit rate mode : Constant

  37. Bit rate : 320 kb/s

  38. Channel(s) : 1 channel

  39. Channel layout : C

  40. Sampling rate : 48.0 kHz

  41. Frame rate : 31.250 FPS (1536 SPF)

  42. Compression mode : Lossy

  43. Stream size : 297 MiB (4%)

  44. Language : English

  45. Service kind : Complete Main

  46. Default : Yes

  47. Forced : No

  48. Text #1

  49. ID : 3

  50. Format : PGS

  51. Muxing mode : zlib

  52. Codec ID : S_HDMV/PGS

  53. Codec ID/Info : Picture based subtitle format used on BDs/HD-DVDs

  54. Duration : 2 h 9 min

  55. Bit rate : 14.4 kb/s

  56. Count of elements : 2839

  57. Stream size : 13.4 MiB (0%)

  58. Language : English

  59. Default : Yes

  60. Forced : No

  61. Text #2

  62. ID : 4

  63. Format : PGS

  64. Muxing mode : zlib

  65. Codec ID : S_HDMV/PGS

  66. Codec ID/Info : Picture based subtitle format used on BDs/HD-DVDs

  67. Duration : 2 h 8 min

  68. Bit rate : 10.9 kb/s

  69. Count of elements : 2590

  70. Stream size : 10.0 MiB (0%)

  71. Language : Chinese

  72. Default : No

  73. Forced : No

  74. Text #3

  75. ID : 5

  76. Format : PGS

  77. Muxing mode : zlib

  78. Codec ID : S_HDMV/PGS

  79. Codec ID/Info : Picture based subtitle format used on BDs/HD-DVDs

  80. Duration : 2 h 8 min

  81. Bit rate : 11.0 kb/s

  82. Count of elements : 2590

  83. Stream size : 10.1 MiB (0%)

  84. Language : Chinese

  85. Default : No

  86. Forced : No

  87. Text #4

  88. ID : 6

  89. Format : PGS

  90. Muxing mode : zlib

  91. Codec ID : S_HDMV/PGS

  92. Codec ID/Info : Picture based subtitle format used on BDs/HD-DVDs

  93. Duration : 2 h 8 min

  94. Bit rate : 20.7 kb/s

  95. Count of elements : 2590

  96. Stream size : 19.0 MiB (0%)

  97. Language : Chinese

  98. Default : No

  99. Forced : No

  100. Text #5

  101. ID : 7

  102. Format : PGS

  103. Muxing mode : zlib

  104. Codec ID : S_HDMV/PGS

  105. Codec ID/Info : Picture based subtitle format used on BDs/HD-DVDs

  106. Duration : 2 h 8 min

  107. Bit rate : 20.6 kb/s

  108. Count of elements : 2590

  109. Stream size : 18.9 MiB (0%)

  110. Language : Chinese

  111. Default : No

  112. Forced : No

  113. Menu

  114. 00:00:00.000 : en:Chapter 01

  115. 00:01:04.898 : en:Chapter 02

  116. 00:04:19.676 : en:Chapter 03

  117. 00:09:48.421 : en:Chapter 04

  118. 00:13:25.221 : en:Chapter 05

  119. 00:20:28.644 : en:Chapter 06

  120. 00:22:40.775 : en:Chapter 07

  121. 00:25:56.596 : en:Chapter 08

  122. 00:28:19.113 : en:Chapter 09

  123. 00:30:49.263 : en:Chapter 10

  124. 00:35:56.570 : en:Chapter 11

  125. 00:41:11.885 : en:Chapter 12

  126. 00:46:34.207 : en:Chapter 13

  127. 00:50:40.245 : en:Chapter 14

  128. 00:55:05.301 : en:Chapter 15

  129. 01:00:26.455 : en:Chapter 16

  130. 01:02:35.960 : en:Chapter 17

  131. 01:09:08.352 : en:Chapter 18

  132. 01:13:37.412 : en:Chapter 19

  133. 01:17:51.291 : en:Chapter 20

  134. 01:24:50.501 : en:Chapter 21

  135. 01:32:37.384 : en:Chapter 22

  136. 01:37:18.665 : en:Chapter 23

  137. 01:39:35.802 : en:Chapter 24

  138. 01:44:55.914 : en:Chapter 25

  139. 01:47:35.865 : en:Chapter 26

  140. 01:51:26.179 : en:Chapter 27

  141. 01:54:30.279 : en:Chapter 28

  142. 01:57:58.195 : en:Chapter 29

  143. 02:02:58.912 : en:Chapter 30

  144. 02:04:12.653 : en:Chapter 31

  145. 02:06:05.974 : en:Chapter 32

  146. 02:09:06.738 : en:Chapter 33


复制代码


TAGS 剧情 历史 /

磁力链:
  • magnet:?xt=urn:btih:D3795C357493E3A8381CBB767EE3ED415F9BA652
上传的附件:
BT9527电影天堂 1、BT9527电影天堂提供的BT文件均来源于互联网抓取,只供网友学习交流、技术提升使用。
2、我们遵守BitTorrent点对点协议原则,任何版权问题请联系原资源发布商,我们不处理任何版权纠纷,谢谢!如有争议请联系邮箱:BT9527#hotmail.com(#换成@)
3、如果您发现某页面或地址有错误,请联系站长邮箱BT9527#hotmail.com(#换成@),我们会尽快处理。您的热心是对BT9527电影天堂最大的支持。
4、本站建议去正规影院观看电影以支持电影行业发展。
最新回复 (0)

你可以在 登录 or 注册 后,对此帖发表评论!

返回