愤怒的公牛[国英多音轨/中英字幕].Raging.Bull.1980.BluRay.1080p.x265.10bit.2Audio-MiniHD 10.18GB

版主小s 28天前 120

◎译 名 愤怒的公牛 / 狂牛(港) / 蛮牛(台)

◎片 名 Raging Bull

◎年 代 1980

◎产 地 美国

◎类 别 剧情 / 传记 / 运动

◎语 言 英语

◎上映日期 1980-11-14

◎IMDb链接 https://www.imdb.com/title/tt0081398/

◎豆瓣评分 8.4/10 (49914人评价)

◎豆瓣链接 https://movie.douban.com/subject/1293155/

◎片 长 129 分钟

◎导 演 马丁·斯科塞斯 Martin Scorsese (id:1054425)

◎编 剧 杰克·拉莫塔 Jake LaMotta (id:1009651)

彼得·萨瓦奇 Peter Savage (id:1023783)

保罗·施拉德 Paul Schrader (id:1009525)

麦迪克·马丁 Mardik Martin (id:1291128)

马丁·斯科塞斯 Martin Scorsese (id:1054425)

◎演 员 罗伯特·德尼罗 Robert De Niro (id:1054445)

凯西·莫拉蒂 Cathy Moriarty (id:1036554)

乔·佩西 Joe Pesci (id:1004598)

弗兰克·文森特 Frank Vincent (id:1150295)

尼可拉斯·科拉山多 Nicholas Colasanto (id:1014028)

特雷萨·萨尔达娜 Theresa Saldana (id:1141120)

马里奥加洛 Mario Gallo (id:1055989)

弗兰克·阿多尼斯 Frank Adonis (id:1041310)

Frank Topham Frank Topham (id:1160108)

查尔斯·斯科西斯 Charles Scorsese (id:1045334)

Don Dunphy Don Dunphy (id:1086318)

Bernie Allen Bernie Allen (id:1059172)

吉恩·拉贝尔 Gene LeBell (id:1109890)

Jimmy Lennon Sr. Jimmy Lennon Sr. (id:1115607)

谢伊·达芬 Shay Duffin (id:1090214)

Eddie Mustafa Muhammad Eddie Mustafa Muhammad (id:1134381)

Coley Wallace Coley Wallace (id:1162126)

George Latka George Latka (id:1111627)

Ken Richards Ken Richards (id:1054055)

Harvey Parry Harvey Parry (id:1129961)

Ted Husing Ted Husing (id:1113094)

迈克尔·巴达鲁科 Michael Badalucco (id:1036675)

Paul Forrest Paul Forrest (id:1082656)

杰拉尔丁·史密斯 Geraldine Smith (id:1156075)

麦迪克·马丁 Mardik Martin (id:1291128)

彼得·萨瓦奇 Peter Savage (id:1023783)

John Arceri John Arceri (id:1061161)

Allan Malamud Allan Malamud (id:1123979)

Richard McMurray Richard McMurray (id:1122013)

玛丽阿尔比 Mary Albee (id:1276925)

Candy Moore Candy Moore (id:1129217)

Richard A. Berk Richard A. Berk (id:1065828)

Wally K. Berns Wally K. Berns (id:1065177)

Glenn Leigh Marshall Glenn Leigh Marshall (id:1125296)

马丁·斯科塞斯 Martin Scorsese (id:1054425)

Vincent Barbi Vincent Barbi (id:1063497)

Scott Crawford (id:1225340)

罗伯特·达赫达赫 Robert Dahdah (id:1073044)

文森特·迪保罗 Vincent Di Paolo (id:1080412)

Bruno DiGiorgi Bruno DiGiorgi (id:1086755)

Marty Farrell Marty Farrell (id:1052605)

查克·希克斯 Chuck Hicks (id:1101151)

约翰·特托罗 John Turturro (id:1031851)

麦肯兹·怀斯摩尔 McKenzie Westmore (id:1166811)

Jim Henrikson Jim Henrikson (id:1286449)

Orchestra del Teatro Comunale di Bologna Orchestra del Teatro Comunale di Bologna (id:1444887)

迈克尔·查普曼 Michael Chapman (id:1075517)

塞尔玛·斯昆梅克 Thelma Schoonmaker (id:1014210)

西斯·科尔曼 Cis Corman (id:1281279)

卡尔·比迪斯康姆 Carl Biddiscombe (id:1278593)

菲尔·艾布拉姆森 Phil Abramson (id:1276763)

Richard Bruno Richard Bruno (id:1279505)

Mona Orr Mona Orr (id:1293642)

◎简 介

杰克?拉莫塔(罗伯特?德尼罗 Robert De Niro 饰)出身于纽约的布鲁克林区。自小便进行拳击训练的杰克很快就在拳击界崭露头角,他因在比赛中出拳迅猛,打击对手毫不留情,表现得就像一头公牛,被称为“愤怒的公牛”。

虽然杰克表现出色,但因为他为人耿直,不肯屈服于黑手党的安排,所以在当时他一直无缘于挑战拳王金腰带。在多次失意后,杰克终于向黑手党屈服,听从安排输掉了一场比赛。之后杰克如愿挑战了拳王并顺利加冕。

加冕后的杰克不仅没有体会到预想中的兴奋,反而看透了拳击界的种种黑幕,决意退出。

◎获奖情况 (共8项)

第53届奥斯卡金像奖 (1981)

最佳影片(提名)

最佳导演(提名)

└──马丁·斯科塞斯 (id:1054425)

最佳男主角

└──罗伯特·德尼罗 (id:1054445)

最佳男配角(提名)

└──乔·佩西 (id:1004598)

最佳女配角(提名)

└──凯西·莫拉蒂 (id:1036554)

最佳摄影(提名)

└──迈克尔·查普曼 (id:1075517)

最佳剪辑

└──塞尔玛·斯昆梅克 (id:1014210)

最佳音响(提名)

  1. ##### MediaInfo ######

  2. General

  3. Unique ID : 236242054057944478022523794082020777922 (0xB1BA9089D8C3FD9B94502A462BA4DFC2)

  4. Complete name : Raging.Bull.1980.BluRay.1080p.x265.10bit.2Audio-MiniHD.mkv

  5. Format : Matroska

  6. Format version : Version 4

  7. File size : 10.2 GiB

  8. Duration : 2 h 9 min

  9. Overall bit rate : 11.3 Mb/s

  10. Encoded date : UTC 2017-08-03 13:02:57

  11. Writing application : mkvmerge v11.0.0 ('Alive') 64bit

  12. Writing library : libebml v1.3.4 + libmatroska v1.4.5

  13. Video

  14. ID : 1

  15. Format : HEVC

  16. Format/Info : High Efficiency Video Coding

  17. Codec ID : V_MPEGH/ISO/HEVC

  18. Duration : 2 h 9 min

  19. Bit rate : 10.2 Mb/s

  20. Width : 1 920 pixels

  21. Height : 1 040 pixels

  22. Display aspect ratio : 1.85:1

  23. Frame rate mode : Constant

  24. Frame rate : 23.976 (24000/1001/53354) FPS

  25. Bits/(Pixel*Frame) : 0.214

  26. Stream size : 9.23 GiB (91%)

  27. Default : Yes

  28. Forced : No

  29. Audio #1

  30. ID : 2

  31. Format : AC-3

  32. Format/Info : Audio Coding 3

  33. Commercial name : Dolby Digital

  34. Codec ID : A_AC3

  35. Duration : 2 h 9 min

  36. Bit rate mode : Constant

  37. Bit rate : 640 kb/s

  38. Channel(s) : 6 channels

  39. Channel layout : L R C LFE Ls Rs

  40. Sampling rate : 48.0 kHz

  41. Frame rate : 31.250 FPS (1536 SPF)

  42. Compression mode : Lossy

  43. Stream size : 591 MiB (6%)

  44. Language : English

  45. Service kind : Complete Main

  46. Default : Yes

  47. Forced : No

  48. Audio #2

  49. ID : 3

  50. Format : AC-3

  51. Format/Info : Audio Coding 3

  52. Commercial name : Dolby Digital

  53. Codec ID : A_AC3

  54. Duration : 2 h 9 min

  55. Bit rate mode : Constant

  56. Bit rate : 192 kb/s

  57. Channel(s) : 2 channels

  58. Channel layout : L R

  59. Sampling rate : 48.0 kHz

  60. Frame rate : 31.250 FPS (1536 SPF)

  61. Compression mode : Lossy

  62. Stream size : 177 MiB (2%)

  63. Language : Chinese

  64. Service kind : Complete Main

  65. Default : No

  66. Forced : No

  67. Text #1

  68. ID : 4

  69. Format : PGS

  70. Muxing mode : zlib

  71. Codec ID : S_HDMV/PGS

  72. Codec ID/Info : Picture based subtitle format used on BDs/HD-DVDs

  73. Language : English

  74. Default : Yes

  75. Forced : No

  76. Text #2

  77. ID : 5

  78. Format : PGS

  79. Muxing mode : zlib

  80. Codec ID : S_HDMV/PGS

  81. Codec ID/Info : Picture based subtitle format used on BDs/HD-DVDs

  82. Language : Chinese

  83. Default : No

  84. Forced : No

  85. Text #3

  86. ID : 6

  87. Format : PGS

  88. Muxing mode : zlib

  89. Codec ID : S_HDMV/PGS

  90. Codec ID/Info : Picture based subtitle format used on BDs/HD-DVDs

  91. Language : Chinese

  92. Default : No

  93. Forced : No

  94. Text #4

  95. ID : 7

  96. Format : PGS

  97. Muxing mode : zlib

  98. Codec ID : S_HDMV/PGS

  99. Codec ID/Info : Picture based subtitle format used on BDs/HD-DVDs

  100. Language : Chinese

  101. Default : No

  102. Forced : No

  103. Menu

  104. 00:00:00.000 : en:Chapter 01

  105. 00:02:52.630 : en:Chapter 02

  106. 00:04:05.286 : en:Chapter 03

  107. 00:07:40.960 : en:Chapter 04

  108. 00:11:26.519 : en:Chapter 05

  109. 00:15:04.153 : en:Chapter 06

  110. 00:17:14.241 : en:Chapter 07

  111. 00:24:06.570 : en:Chapter 08

  112. 00:26:54.738 : en:Chapter 09

  113. 00:31:23.715 : en:Chapter 10

  114. 00:33:19.455 : en:Chapter 11

  115. 00:38:03.864 : en:Chapter 12

  116. 00:41:16.724 : en:Chapter 13

  117. 00:43:51.211 : en:Chapter 14

  118. 00:49:29.216 : en:Chapter 15

  119. 00:57:01.376 : en:Chapter 16

  120. 00:59:03.581 : en:Chapter 17

  121. 01:03:01.486 : en:Chapter 18

  122. 01:06:27.191 : en:Chapter 19

  123. 01:09:14.567 : en:Chapter 20

  124. 01:13:40.416 : en:Chapter 21

  125. 01:18:21.655 : en:Chapter 22

  126. 01:22:05.837 : en:Chapter 23

  127. 01:28:30.388 : en:Chapter 24

  128. 01:33:53.586 : en:Chapter 25

  129. 01:37:07.279 : en:Chapter 26

  130. 01:41:34.046 : en:Chapter 27

  131. 01:42:52.416 : en:Chapter 28

  132. 01:48:17.991 : en:Chapter 29

  133. 01:50:31.750 : en:Chapter 30

  134. 01:52:08.805 : en:Chapter 31

  135. 01:53:58.623 : en:Chapter 32

  136. 01:57:06.853 : en:Chapter 33

  137. 01:58:57.755 : en:Chapter 34

  138. 02:01:02.630 : en:Chapter 35

  139. 02:03:57.430 : en:Chapter 36


复制代码


TAGS 剧情 运动 传记 /

磁力链:
  • magnet:?xt=urn:btih:65FB13B42E58A37D95F7379B67D5752A68D21A54
上传的附件:
BT9527电影天堂 1、BT9527电影天堂提供的BT文件均来源于互联网抓取,只供网友学习交流、技术提升使用。
2、我们遵守BitTorrent点对点协议原则,任何版权问题请联系原资源发布商,我们不处理任何版权纠纷,谢谢!如有争议请联系邮箱:BT9527#hotmail.com(#换成@)
3、如果您发现某页面或地址有错误,请联系站长邮箱BT9527#hotmail.com(#换成@),我们会尽快处理。您的热心是对BT9527电影天堂最大的支持。
4、本站建议去正规影院观看电影以支持电影行业发展。
最新回复 (0)

你可以在 登录 or 注册 后,对此帖发表评论!

返回
发新帖